Bareback Boys - German Goo Boys 2 (2009)

CategoryFetish
Download
You need to Login or Signup first.
DescriptionThe German Goo Boys are back! Bareback that is! German Goo Boys Volume 2 delivers more of everything you’re hungry for! 100% goo. 100% gay. 100% ass fucking and cock sucking! German Goo Boys is extreme, gay hardcore sex. This is an all-male orgy like you’ve never seen before. See hot men drink cum and get their asses and mouths fucked hard the GGG way! Sperm! Sperm! Sperm!

Cast: Uncredited

Tags: group sex, orgy, oral, blowjob, cumshot, cum shot, bukkake, cum eating

General
Complete name                            : F:Moje plikiPrywatneVideosPornGay[Bareback Boys] German Goo Boys 2 (2009)German Goo Boys 2.flv
Format                                  : Flash Video
File size                                : 922 MiB
Duration                                : 1h 27mn
Overall bit rate                        : 1 467 Kbps
Encoded date                            : 2009-01-22 07:30:23
Tagged date                              : UTC 2009-01-22 19:55:54
Tagging application                      : Manitu Group FLV MetaData Injector 2

Video
Format                                  : VP6
Codec ID                                : 4
Duration                                : 1h 27mn
Bit rate                                : 1 300 Kbps
Width                                    : 640 pixels
Height                                  : 480 pixels
Display aspect ratio                    : 4:3
Frame rate mode                          : Constant
Frame rate                              : 25.000 fps
Bit depth                                : 8 bits
Bits/(Pixel*Frame)                      : 0.169
Stream size                              : 839 MiB (91%)

Audio
Format                                  : MPEG Audio
Format version                          : Version 1
Format profile                          : Layer 3
Mode                                    : Joint stereo
Mode extension                          : MS Stereo
Codec ID                                : 2
Codec ID/Hint                            : MP3
Duration                                : 1h 27mn
Bit rate mode                            : Constant
Bit rate                                : 128 Kbps
Channel count                            : 2 channels
Sampling rate                            : 44.1 KHz
Compression mode                        : Lossy
Stream size                              : 83.6 MiB (9%)

Enjoy :)
Added2014-06-07 19:58:20
Size922.20 MB (966,995,513 bytes)
Views16
Num files1 files
Pictures