Vulcan Amateurs The Best

CategoryLatino
Download
You need to Login or Signup first.
DescriptionVulcan Amateurs The Best
      Format : AVI
      Format/Info : Audio Video Interleave
      Format profile : OpenDML
      File size : 2.09 GiB
      Duration : 2h 35mn
      Overall bit rate : 1 925 Kbps
      Writing application : MEncoder SVN-r33883(20110719-gcc4.5.2)
      Writing library : MPlayer
  Video #0
      ID : 0
      Format : MPEG-4 Visual
      Format profile : Advanced Simple@L5
      Format settings, BVOP : 2
      Format settings, QPel : No
      Format settings, GMC : No warppoints
      Format settings, Matrix : Default (H.263)
      Codec ID : XVID
      Codec ID/Hint : XviD
      Duration : 2h 35mn
      Bit rate : 1 783 Kbps
      Width : 856 pixels
      Height : 480 pixels
      Display aspect ratio : 16:9
      Original display aspect ratio : 16:9
      Frame rate : 29.970 fps
      Color space : YUV
      Chroma subsampling : 4:2:0
      Bit depth : 8 bits
      Scan type : Progressive
      Compression mode : Lossy
      Bits/(Pixel*Frame) : 0.145
      Stream size : 1.94 GiB (93%)
      Writing library : XviD 1.2.1 (UTC 2008-12-04)
  Audio #1
      ID : 1
      Format : MPEG Audio
      Format version : Version 1
      Format profile : Layer 3
      Mode : Joint stereo
      Mode extension : MS Stereo
      Codec ID : 55
      Codec ID/Hint : MP3
      Duration : 2h 35mn
      Bit rate mode : Constant
      Bit rate : 128 Kbps
      Channel(s) : 2 channels
      Sampling rate : 44.1 KHz
      Compression mode : Lossy
      Delay relative to video : 33ms
      Stream size : 143 MiB (7%)
      Alignment : Aligned on interleaves
      Interleave, duration : 26 ms (0.78 video frame)
      Interleave, preload duration : 522 ms
      Writing library : LAME3.98.4
Added2014-09-13 13:00:33
Size10.82 GB (11,613,362,421 bytes)
Views8
Num files6 files
Pictures