♺ AsiaBoy - Thai Soldier Seduces Student - 720p - Bareback - Remastered

CategoryAsian
Download
You need to Login or Signup first.
DescriptionOriginal upload: 2014-10-25 |

Being a solider may be hard work, but there's many a willing schoolboy ready to attend to that hardness with a wet and slippery tongue. William shows soldier Marvin how much he appreciates Marvin's service to the country pulling out his firm sausage and licking it from head to balls. Marvin takes advantage of his sexy schoolboy and face fucks him until his cock is ready to explore William's other hole. Horny, eager William climbs on top of the soldier and slides down his hungry cock, bareback fucking himself. Together, they try every conceivable position, and even try some dildo play, as William approaches climax...  (Studio Promotion Notes up to the last sentence, lol)

Studio: AsiaBoyVideo
Released as "495 The Soldier Suck-Off"
Release Date: Jan 17, 2011
Duration: 37min 44sec
Remastered by Pawpcorn

This is one of those rare finds where the boys are drop-dead gorgeous, hard, and enthusiastic, from start to finish. There were NO significant flaws to the entire production, save for the surprisingly small cum load each boy delivered, but this was probably due to having deliberately cum some time before the shoot, in order to have the long term endurance of fucking for what was probably an extended hour (or TWO), without the danger of premature ejaculation. This IS one long fuck session, although just 35 minutes, after editing.

The 50 selected pictures from the video were hand selected, using the VirtualDub editing program for selection, frame by frame.

Aside from terrific talent, and decent lighting, the end product surprisingly ended up looking somewhat dark, washed out and colorless. Resetting video levels to where they SHOULD have been, using a waveform / vectorscope for reference, I Color-Corrected the video with a "Intensity" (luminance levels boosted, not touching black levels) boost of 15%, Color Saturation also boosted to look "normal to the eye" took a 22% boost, with a phase correction of +3. I also sharpened the image moderately, without adding any detrimental noise to the image (16 of a possible 64). I believe the original camera film rate was done at something like 20fps, since I saw that there were many frames repeated, in the original video.

If you take a look at the "Before and After" images, I think you'll agree the end result was rather stunning, at least to my eye. With all of the reprocessing and sharpening, the end file size result was about 20% larger than the original, which isn't too bad, all things considered. Final processing was performed with a 2 pass xvid system of quantitizing frame by frame movement, then using this data to constantly vary the video data rate (variable data rate) for maximum quality, with the smallest file size, with settings chosen to NOT degrade the video quality from the original, in the least.

===============Detailed Technical Specs=====================
[General] Complete name :[AsiaBoy] Thai Soldier Seduces Student - 720p - Bareback - Remastered.avi
Format : AVI
Format/Info : Audio Video Interleave
File size : 1.23 GiB
Duration : 37mn 44s
Overall bit rate : 4 685 Kbps
Writing library : VirtualDub build 32839/release

[Video] ID : 0
Format : MPEG-4 Visual
Format profile : Advanced Simple@L5
Format settings, BVOP : 2
Format settings, QPel : No
Format settings, GMC : No warppoints
Format settings, Matrix : Default (MPEG)
Muxing mode : Packed bitstream
Codec ID : XVID
Codec ID/Hint : XviD
Duration : 37mn 44s
Bit rate : 4 547 Kbps
Width : 1 280 pixels
Height : 720 pixels
Display aspect ratio : 16:9
Frame rate : 25.000 fps
Color space : YUV
Chroma subsampling : 4:2:0
Bit depth : 8 bits
Scan type : Progressive
Compression mode : Lossy
Bits/(Pixel*Frame) : 0.197
Stream size : 1.20 GiB (97%)
Writing library : XviD 64

[Audio] ID : 1
Format : MPEG Audio
Format version : Version 1
Format profile : Layer 3
Mode : Joint stereo
Mode extension : MS Stereo
Codec ID : 55
Codec ID/Hint : MP3
Duration : 37mn 41s
Bit rate mode : Constant
Bit rate : 128 Kbps
Channel count : 2 channels
Sampling rate : 44.1 KHz
Compression mode : Lossy
Stream size : 34.5 MiB (3%)
Alignment : Split accross interleaves
Interleave, duration : 40 ms (1.00 video frame)
Interleave, preload duration : 500 ms
Writing library : LAME3.98.4
Added2015-10-31 19:16:08
Size1.26 GB (1,347,964,511 bytes)
Views29
Num files54 files
Pictures