Taken down by DMCA request

Phoenixxx - Kyler Moss Rightously Fucked by Spencer Williams - 720p

You need to Login or Signup first.
DescriptionIncludes Preview Video!!! Includes 85 Selected HD Photos!!!

In this scene from the upcoming "My Horrible Gay Boss," the intern Kyler Moss offers new guy Spencer Williams some valuable dirt on their pervy boss--but the blackmail material comes at a cost, Kyler wants to get fucked! Spencer decides getting revenge on Mitch Vaugh is worth paying for and he takes the horny boy up to his bedroom. After sucking each other's cock, the gorgeous muscule-stud fucks little Kyler hard until he cums and the intern ends up taking Spencer's hot load in his mouth.

Three personal notes about this video... It's clear to see Kyler Moss working HARD at refining his ability to DEEP THROAT, without gagging; if you listen to the audio during this portion, you'll hear Kyler gagging and struggling MANY times, to the point of having tears stream down his cheeks, until he seems to master the technique, a little bit later...

Secondly, it's so much fun to see just how clearly BOTH of these guys were having so much fun during the fucking... INTENSE and continually HARD throughout the scenes... a pleasure to witness...

And Thirdly, SUCH a rare treat, to watch a pretty twink like Kyler so totally ENJOY gobbling up EVERY drop of abundant cum, during Spencer's intense orgasm... As a huge fan of primarily Asian porn, I've gotten used to the looks of disgust and revulsion on the faces of the Asian porn stars (most of the time, at least), not to mention seeing the tightly closed lips or hearing the director telling them "Eat it...!!!! Open your mouth!!!" during the oral cum shot scenes... Kind of spoils the fun, speaking from my cum-loving personal perspective. These graphic oral cum-lapping and sharing scenes are what I really miss, since the OTB Video Studio closed down... THOSE Latino boys had cum-lapping and snow-balling down to a fine art.... {sigh...}

Categories: Twink, Hunk, Body Builder, Condom, Fuck Standing Up, Riding, Missionary, In The Bedroom, Hard Fuck, DoggyStyle, Cum Jerking Off, Cum Getting Fucked, Boy Toys, Cum Eating, Uncut, Muscular, Cut, Trimmed, Fucking, Brown Hair, Black Hair, Deep Throat, Rimming, Kissing, Facial, Interracial, Anal

Models: Spencer Williams, Kyler Moss


[General] Complete name : Phoenixxx - Kyler Moss Rightously Fucked by Spencer Williams 720p.mp4
Format : MPEG-4
Format profile : Base Media
Codec ID : isom
File size : 958 MiB
Duration : 29mn 50s
Overall bit rate mode : Variable
Overall bit rate : 4 488 Kbps
Season : 0
Part : 0
Genre : Abstract
ContentType : Movie
Encoded date : UTC 2012-07-12 11:56:30
Tagged date : UTC 2012-07-12 11:56:30
Comment : Uploaded by GAYPORNFILE.COM
rati : (Binary)

[Video] ID : 1
Format : AVC
Format/Info : Advanced Video Codec
Format profile : Baseline@L3.1
Format settings, CABAC : No
Format settings, ReFrames : 3 frames
Codec ID : avc1
Codec ID/Info : Advanced Video Coding
Duration : 29mn 50s
Bit rate : 4 358 Kbps
Maximum bit rate : 13.8 Mbps
Width : 1 280 pixels
Height : 720 pixels
Display aspect ratio : 16:9
Frame rate mode : Constant
Frame rate : 29.970 fps
Color space : YUV
Chroma subsampling : 4:2:0
Bit depth : 8 bits
Scan type : Progressive
Bits/(Pixel*Frame) : 0.158
Stream size : 930 MiB (97%)
Writing library : x264 core 118 r2085kMod 8a62835
Encoding settings : cabac=0 / ref=3 / deblock=1:0:0 / analyse=0x1:0x111 / me=hex / subme=7 / psy=1 / fade_compensate=0.10 / psy_rd=1.00:0.00 / mixed_ref=1 / me_range=16 / chroma_me=1 / trellis=1 / 8x8dct=0 / cqm=0 / deadzone=21,11 / fast_pskip=1 / chroma_qp_offset=-2 / threads=12 / sliced_threads=0 / nr=0 / decimate=1 / interlaced=0 / bluray_compat=0 / constrained_intra=0 / bframes=0 / weightp=0 / keyint=250 / keyint_min=25 / scenecut=40 / intra_refresh=0 / rc_lookahead=40 / rc=crf / mbtree=1 / crf=21.0000 / qcomp=0.60 / qpmin=0 / qpmax=69 / qpstep=4 / vbv_maxrate=14000 / vbv_bufsize=14000 / crf_max=0.0 / nal_hrd=none / ip_ratio=1.40 / aq=1:1.00
Encoded date : UTC 2012-07-12 11:56:30
Tagged date : UTC 2012-07-12 12:02:45

[Audio] ID : 2
Format : AAC
Format/Info : Advanced Audio Codec
Format profile : LC
Codec ID : 40
Duration : 29mn 50s
Bit rate mode : Variable
Bit rate : 128 Kbps
Maximum bit rate : 143 Kbps
Channel count : 2 channels
Channel positions : Front: L R
Sampling rate : 44.1 KHz
Compression mode : Lossy
Stream size : 27.3 MiB (3%)
Encoded date : UTC 2012-07-12 12:00:45
Tagged date : UTC 2012-07-12 12:02:45

Added2014-11-18 17:09:57
Size0.98 GB (1,051,592,006 bytes)
Num files89 files