[future boy] C1001555 174cm70kg20才 話題騒然!!超有名カメラマンの写真集にも登場した経歴の持ち主が何と!初脱ぎに挑戦!!

CategoryAsian
Download
You need to Login or Signup first.
DescriptionGeneral
Complete name                  : F:1080新建文件夹 (2)[future boy] C1001555 174cm70kg20才 話題騒然!!超有名カメラマンの写真集にも登場した経歴の持ち主が何と!初脱ぎに挑戦!!.wmv
Format                        : Windows Media
File size                      : 280 MiB
Duration                      : 24 min
Overall bit rate mode          : Variable
Overall bit rate              : 1 608 kb/s
Maximum Overall bit rate      : 4 551 kb/s
Encoded date                  : UTC 2013-03-09 02:00:21.786

Video
ID                            : 2
Format                        : VC-1
Format profile                : MP@ML
Codec ID                      : WMV3
Codec ID/Info                  : Windows Media Video 9
Codec ID/Hint                  : WMV3
Description of the codec      : Windows Media Video 9 - Professional
Duration                      : 24 min
Bit rate mode                  : Variable
Bit rate                      : 1 500 kb/s
Width                          : 720 pixels
Height                        : 480 pixels
Display aspect ratio          : 3:2
Frame rate                    : 29.970 (30000/1001) FPS
Standard                      : NTSC
Color space                    : YUV
Chroma subsampling            : 4:2:0
Bit depth                      : 8 bits
Scan type                      : Progressive
Compression mode              : Lossy
Bits/(Pixel*Frame)            : 0.145
Stream size                    : 262 MiB (93%)
NumberOfFrames                : 43830

Audio
ID                            : 1
Format                        : WMA
Format version                : Version 2
Codec ID                      : 161
Codec ID/Info                  : Windows Media Audio
Description of the codec      : Windows Media Audio 9.2 -  96 kbps, 48 kHz, stereo 2-pass VBR
Duration                      : 24 min
Bit rate mode                  : Variable
Bit rate                      : 96.7 kb/s
Channel(s)                    : 2 channels
Sampling rate                  : 48.0 kHz
Bit depth                      : 16 bits
Stream size                    : 16.9 MiB (6%)
NumberOfFrames                : 4317

Added2016-07-25 13:39:12
Size280.44 MB (294,064,157 bytes)
Views132
Num files1 files
Pictures