♺ Ikarus - French Erection

You need to Login or Signup first.
DescriptionOriginal upload: 2009-09-23 |

Thanks By: jhyg, liverpool, gettysburg, gaev2006, chita2, buxadera (5), kioully, Apothos, evilQ333, markbear37, thegambler85 (5), jorart, spike2123, rachman, mfnmelb, mickuk2 (5), alex1970, maverikturk (2), tallguyftl, zapper, justinyoung4 (5)

Winner of the "Best Gay Film" at the 2003 Venus Awards, Berlin.

Starring Horst Wieland, Aurelius, Beny Motolka, Toby Steiner, Anton Elsinski, Karel Prochazka, Eric Chateau and Tom Evans.

Directed by Conny Haller.

Voted Best Gay Film for 2003 by Berlin's Venus Awards, French Erection is a true winner from start to finish. The story is primarily narrative. At a backyard bbq, the delicious host tells a cute blond twink about how he spied on two of the party guests when they were out in the woods. We then cut to the scene between the two skinny lads, their huge uncut dicks, and the host standing next to a tree jerking his rod. The kid with the bigger dick ends up - so to speak - being the bottom, taking it from behind whilst standing. The host drops his thick load, leaving the two to have it. It's not a very energetic scene, but certainly good enough to launch the remainder of the film's hot provocative sex.

Three bicyclists clad in Spandex suits stop under a bridge after their ride and suck one another, and then one of them jumps onboard another, lovingly prepping his hole with a slow, seductive rimming. Once good and gooey, he crams his 8 inches in to his nuts, riding him with a fury; the bottom sucking happily away on the other guys spoke. After a nice round of butt fucking, the top man stands on his hands to receive an innovative rim job of his own! The three then jerk their meat to a creamy end all over a bike seat.

Our blond twink tells the host about being "raped" by two joggers. He confesses that once he eased into it, it was quite sexy. And it is. The two joggers tag team the blonds round, pillowy ass with their tongues and dicks, and the one takes turns fucking the blond and his running partner. All three blow incredible wads of boy juice, the jogger's loads landing all over the blond's face, and in his gaping mouth.

Two sunbathers get it on poolside. Chemistry burns quite nicely between them, and the top man knows how to put it to his partner. Next up is the host and the blond playing a fun round of hide the sausage - literally! The blond shoves a thick link of meat into the host's ass, and then plugs him full of cock. Meanwhile, a sultry threesome is under way by a tree, which then becomes a five-boy orgy once the blond and host join in. Everyone gets served, and all shoot heaping loads of cum. If that isn't enough, two lads get in on in the bedroom (the only indoor scene in the whole film). It's seductive, steamy, and jammed with good cock eating, rimming, and butt plugging. To conclude, two guys meet up by the tree below the window to grope one another. Not long thereafter, they are joined by four others for a heady, climactic orgy; complete with two couples fucking in the branches!

I could clearly see why it received the award. It plays out like a well produced home movie, but it's done so in an artsy-fartsy fashion.

This is without a doubt a very sexy video. Beautifully filmed, beautiful guys... who wouldn't want to join them?

Enjoy the show!

Format                          : AVI
Format/Info                      : Audio Video Interleave
File size                        : 749 MiB
Duration                        : 1h 38mn
Overall bit rate                : 1 061 Kbps

ID                              : 0
Format                          : MPEG-4 Visual
Format profile                  : Advanced Simple@L5
Format settings, BVOP            : 1
Format settings, QPel            : No
Format settings, GMC            : No warppoints
Format settings, Matrix          : Default (H.263)
Muxing mode                      : Packed bitstream
Codec ID                        : DIVX
Codec ID/Hint                    : DivX 4
Duration                        : 1h 38mn
Bit rate                        : 955 Kbps
Width                            : 384 pixels
Height                          : 288 pixels
Display aspect ratio            : 4:3
Frame rate                      : 25.000 fps
Color space                      : YUV
Chroma subsampling              : 4:2:0
Bit depth                        : 8 bits
Scan type                        : Progressive
Compression mode                : Lossy
Bits/(Pixel*Frame)              : 0.345
Stream size                      : 674 MiB (90%)
Writing library                  : XviD 1.1.0 (UTC 2005-11-22)

ID                              : 1
Format                          : MPEG Audio
Format version                  : Version 1
Format profile                  : Layer 3
Mode                            : Joint stereo
Mode extension                  : MS Stereo
Codec ID                        : 55
Codec ID/Hint                    : MP3
Duration                        : 1h 38mn
Bit rate mode                    : Constant
Bit rate                        : 96.0 Kbps
Channel(s)                      : 2 channels
Sampling rate                    : 48.0 KHz
Compression mode                : Lossy
Stream size                      : 67.8 MiB (9%)
Alignment                        : Aligned on interleaves
Interleave, duration            : 40 ms (1.00 video frame)
Interleave, preload duration    : 504 ms
Writing library                  : LAME3.97b
Encoding settings                : -m j -V 4 -q 2 -lowpass 16 -b 96

Added2015-02-05 20:53:04
Size755.28 MB (791,971,593 bytes)
Num files36 files