♺ 2 guys spy cams

CategoryHomemade
Download
You need to Login or Signup first.
DescriptionOriginal upload: 2014-03-20 |
  General
      Complete name : 2 guys spy cams_xvid.avi
      Format : AVI
      Format/Info : Audio Video Interleave
      File size : 58.5 MiB
      Duration : 33mn 30s
      Overall bit rate : 244 Kbps
      Writing application : MEncoder Sherpya-SVN-r29355-4.5.0
      Writing library : MPlayer
  Video #0
      ID : 0
      Format : MPEG-4 Visual
      Format profile : Simple@L3
      Format settings, BVOP : No
      Format settings, QPel : No
      Format settings, GMC : No warppoints
      Format settings, Matrix : Default (H.263)
      Codec ID : XVID
      Codec ID/Hint : XviD
      Duration : 33mn 30s
      Bit rate : 113 Kbps
      Width : 320 pixels
      Height : 240 pixels
      Display aspect ratio : 4:3
      Frame rate : 25.000 fps
      Resolution : 24 bits
      Colorimetry : 4:2:0
      Scan type : Progressive
      Bits/(Pixel*Frame) : 0.059
      Stream size : 27.1 MiB (46%)
      Writing library : XviD 1.2.1 (UTC 2008-12-04)
  Audio #1
      ID : 1
      Format : MPEG Audio
      Format version : Version 1
      Format profile : Layer 3
      Codec ID : 55
      Codec ID/Hint : MP3
      Duration : 33mn 30s
      Bit rate mode : Variable
      Bit rate : 118 Kbps
      Channel(s) : 2 channels
      Sampling rate : 44.1 KHz
      Resolution : 16 bits
      Stream size : 28.4 MiB (48%)
      Alignment : Aligned on interleaves
      Interleave, duration : 26 ms (0.65 video frame)
      Interleave, preload duration : 472 ms
Added2016-06-26 00:42:07
Size58.54 MB (61,383,970 bytes)
Views274
Num files1 files
Pictures