Taken down by DMCA request

Remy Mars and Jermany in Fucked Full of Nutt

CategoryBlack
Download
You need to Login or Signup first.
DescriptionTwo black boys fuck bareback. Nice creampie at the end!
Remy Mars and Jermany in Fucked Full of Nutt from BreedItRaw! Studios

Format: MPEG-4
Format profile: QuickTime
Codec ID: qt 
File size: 217 MiB
Duration: 21mn 11s
Overall bit rate mode: Variable
Overall bit rate: 1 429 Kbps
Encoded date: UTC 2011-02-13 19:49:53
Tagged date: UTC 2011-02-13 19:50:42
Writing library: Apple QuickTime
Media/UUID: 0D5B8BE0-6C9E-4188-8826-9995271A09C1

Video
ID: 1
Format: AVC
Format/Info: Advanced Video Codec
Format profile: Main@L3.1
Format settings, CABAC: No
Format settings, ReFrames: 2 frames
Codec ID: avc1
Codec ID/Info: Advanced Video Coding
Duration: 21mn 11s
Bit rate mode: Variable
Bit rate: 1 216 Kbps
Maximum bit rate: 1 409 Kbps
Width: 854 pixels
Height: 480 pixels
Display aspect ratio: 16:9
Frame rate mode: Constant
Frame rate: 29.970 fps
Color space: YUV
Chroma subsampling: 4:2:0
Bit depth: 8 bits
Scan type: Progressive
Bits/(Pixel*Frame): 0.099
Stream size: 184 MiB (85%)
Language: English
Encoded date: UTC 2011-02-13 19:49:29
Tagged date: UTC 2011-02-13 19:50:42
Color range: Limited
Color primaries: BT.709
Transfer characteristics: BT.709
Matrix coefficients: BT.709

Audio
ID: 2
Format: AAC
Format/Info: Advanced Audio Codec
Format profile: LC
Codec ID: 40
Duration: 21mn 11s
Source duration: 21mn 11s
Bit rate mode: Constant
Bit rate: 101 Kbps
Nominal bit rate: 128 Kbps
Channel(s): 2 channels
Channel positions: Front: L R
Sampling rate: 48.0 KHz
Compression mode: Lossy
Stream size: 15.3 MiB (7%)
Source stream size: 15.3 MiB (7%)
Language: English
Encoded date: UTC 2011-02-13 19:49:29
Tagged date: UTC 2011-02-13 19:50:42



Added2015-10-15 16:48:55
Size216.69 MB (227,214,154 bytes)
Views0
Num files1 files
Pictures