Taken down by DMCA request

The Bait Bus - Dick Being served, Gino and Cole Harvey

CategoryAnal
Download
You need to Login or Signup first.
DescriptionFormat                                  : Windows Media
File size                                : 624 MiB
Duration                                : 57min
Overall bit rate mode                    : konstant
Overall bit rate                        : 1 505 Kbps
Maximum Overall bit rate                : 1 612 Kbps
Encoded date                            : UTC 2011-03-11 06:50:59.116

Video
ID                                      : 2
Format                                  : VC-1
Format profile                          : Advanced@L1
Codec ID                                : WVC1
Codec ID/Hint                            : Microsoft
Description of the codec                : VC-1 - VC-1 Advanced Profile
Duration                                : 57min
Bit rate mode                            : konstant
Bit rate                                : 1 500 Kbps
Width                                    : 852 Pixel
Height                                  : 480 Pixel
Display aspect ratio                    : 16:9
Frame rate                              : 29,970 FPS
Color space                              : YUV
Chroma subsampling                      : 4:2:0
Bit depth                                : 8 bits
Scan type                                : progressiv
Bits/(Pixel*Frame)                      : 0.122
Stream size                              : 622 MiB (100%)
Language                                : Englisch (US)

Audio
ID                                      : 1
Format                                  : WMA
Format version                          : Version 2
Codec ID                                : 161
Codec ID/Info                            : Windows Media Audio
Description of the codec                : Windows Media Audio 9.2 -  96 kbps, 44 kHz, stereo 2-pass CBR
Duration                                : 57min
Bit rate mode                            : konstant
Bit rate                                : 96,0 Kbps
Channel(s)                              : 2 Kanäle
Sampling rate                            : 44,1 KHz
Bit depth                                : 16 bits
Stream size                              : 39,8 MiB (6%)
Language                                : Englisch (US)


Added2015-07-31 11:00:10
Size623.78 MB (654,082,301 bytes)
Views0
Num files1 files
Pictures