♺ The best from kamera@bk

CategoryVoyeur
Download
You need to Login or Signup first.
DescriptionOriginal upload: 2014-09-13 |
The best from Kamera@bk

      Format : AVI
      Format/Info : Audio Video Interleave
      Format profile : OpenDML
      File size : 1.68 GiB
      Duration : 1h 37mn
      Overall bit rate : 2 463 Kbps
      Writing application : Lavf52.39.1
  Video #0
      ID : 0
      Format : WMV2
      Codec ID : WMV2
      Codec ID/Info : Windows Media Video 8
      Duration : 1h 37mn
      Bit rate : 2 323 Kbps
      Width : 720 pixels
      Height : 576 pixels
      Display aspect ratio : 5:4
      Frame rate : 25.000 fps
      Standard : PAL
      Bits/(Pixel*Frame) : 0.224
      Stream size : 1.59 GiB (94%)
  Audio #1
      ID : 1
      Format : MPEG Audio
      Format version : Version 1
      Format profile : Layer 3
      Mode : Joint stereo
      Codec ID : 55
      Codec ID/Hint : MP3
      Duration : 1h 37mn
      Bit rate mode : Constant
      Bit rate : 128 Kbps
      Channel(s) : 2 channels
      Sampling rate : 48.0 KHz
      Compression mode : Lossy
      Stream size : 89.6 MiB (5%)
      Alignment : Aligned on interleaves
      Interleave, duration : 24 ms (0.60 video frame)
      Interleave, preload duration : 24 ms
Added2016-04-12 17:17:05
Size7.00 GB (7,513,669,865 bytes)
Views107
Num files8 files
Pictures