Taken down by DMCA request

Hung Boys - Eurocreme, DreamBoy

CategoryTwinks
Download
You need to Login or Signup first.
DescriptionDescription: Everyone's favourite piece of a man, and always above average, this is HungBoys, the best of DreamBoy's hugely hung stars!! Watching massive cocks slam into tight holes, stretching them open and going deeper than the horned up bottom boys ever thought possible, Seven scenes of pure ass splitting action!

Director: Simon Booth

Studio: Eurocreme / DreamBoy

Cast: Matt Hughes, Johan Volny, Steven Prior, Chris Cooke, Brace Levitt, Tim Miller, Dominic Diesel, Wayne Cannon, James Scott, Ryan Garcia, Andrew Dean, Danny Phoenix, Anthony Turner, Aaron Burns, Ben Taylor, Harry Williams , Titch Jones, Damien Esco, Jak Williams, Kyle Price, Greg David



Format                                  : AVI
Format/Info                              : Audio Video Interleave
Format profile                          : OpenDML
File size                                : 1.36 GiB
Duration                                : 1h 36mn
Overall bit rate                        : 2 007 Kbps
Writing application                      : Lavf51.12.1

Video
ID                                      : 0
Format                                  : xvid
Codec ID                                : xvid
Duration                                : 1h 36mn
Bit rate                                : 1 799 Kbps
Width                                    : 960 pixels
Height                                  : 540 pixels
Display aspect ratio                    : 16:9
Frame rate                              : 29.970 fps
Bits/(Pixel*Frame)                      : 0.116
Stream size                              : 1.22 GiB (90%)

Audio
ID                                      : 1
Format                                  : MPEG Audio
Format version                          : Version 1
Format profile                          : Layer 3
Mode                                    : Joint stereo
Codec ID                                : 55
Codec ID/Hint                            : MP3
Duration                                : 1h 36mn
Bit rate mode                            : Constant
Bit rate                                : 192 Kbps
Channel(s)                              : 2 channels
Sampling rate                            : 48.0 KHz
Compression mode                        : Lossy
Stream size                              : 133 MiB (10%)
Alignment                                : Aligned on interleaves
Interleave, duration                    : 24 ms (0.72 video frame)
Interleave, preload duration            : 24 ms
Writing library                          : LAME3.97
Added2014-09-09 22:41:20
Size1.36 GB (1,457,005,148 bytes)
Views0
Num files1 files
Pictures