♺ Private Boy Movie - Koh and Yod (avi)

You need to Login or Signup first.
DescriptionOriginal upload: 2010-04-09 |

Pretty Thai boys Koh and Yod mix it up together, proving once again, that being Thai, effeminate, and gorgeous doesn't mean you can't top like a macho man!
Title: Koh and Yod
Studio: www.PrivateBoyMovie.com
Year Released: probably 2009
Duration: 29 minutes
Private note: These boys are simply drop-dead gorgeous, with beautiful cocks. The sex may be somewhat tame, by some standards (especially after those xxxTreme Latino videos!!!), but these are gentle Thai boys who most certainly grew up in the rural Isaan area of Northern Thailand, and this is their style of gentle sex. I think you'll find this enjoyable watching, just the same, as did I.

Since this video was shot beautifully, in high resolution widescreen, no color correction was required for this video; I just sharpened the video a little bit. I converted it from .wmv format, editing out the middle {end of Part 1) title.

And, as always, if you appreciate the work I put into creating this video, I could really use any gift of bonus points you can afford to give.

I'm usually downloading DVDs from this great torrent site, to create the highest quality and resolution videos to share with you, converted directly from the DVD data files. But this, by nature, tends to chip away, severely, at my upload/download ratio, as you can imagine.

This Xvid .AVI video was created by converting the original .wmv files to low-compression .avi format, then using the Xvid codec in 2-pass mode, to detect motion, thus utilizing Variable Bit Rates for the most efficient Video Compression, achieving a uniform look of high quality, plus MP3 audio, joining the two segments together, resulting in a reasonable file size. This video has a Gspot Qf (Quality Factor) of .241 for near-DVD quality.

Multimedia Analysis of:  [PrivateBoyMovie] - Koh and Yod.avi
Complete name: [PrivateBoyMovie] - Koh and Yod.avi
Format : AVI
Format/Info : Audio Video Interleave
File size : 540 MiB
Duration : 28mn 39s
Overall bit rate : 2 633 Kbps
Director : created.with.SUPER(C).v2010.bld.37
Writing application : VirtualDubMod (build 2542/release)
Writing library : VirtualDubMod build 2542/release

Video  ID : 0
Format : MPEG-4 Visual
Format profile : Advanced Simple@L5
Format settings, BVOP : Yes
Format settings, QPel : No
Format settings, GMC : No warppoints
Format settings, Matrix : Default (MPEG)
Muxing mode : Packed bitstream
Codec ID : XVID
Codec ID/Hint : XviD
Duration : 28mn 39s
Bit rate : 2 495 Kbps
Width : 720 pixels
Height : 576 pixels
Display aspect ratio : 16:9
Frame rate : 25.000 fps
Standard : PAL
Resolution : 8 bits
Colorimetry : 4:2:0
Scan type : Progressive
Bits/(Pixel*Frame) : 0.241
Stream size : 511 MiB (95%)
Writing library : XviD 1.2.1 (UTC 2008-12-04)

Audio  ID : 1
Format : MPEG Audio
Format version : Version 1
Format profile : Layer 3
Codec ID : 55
Codec ID/Hint : MP3
Duration : 28mn 39s
Bit rate mode : Constant
Bit rate : 128 Kbps
Channel(s) : 2 channels
Sampling rate : 44.1 KHz
Stream size : 26.2 MiB (5%)
Alignment : Split accross interleaves
Interleave, duration : 40 ms (1.00 video frame)
Interleave, preload duration : 500 ms
Writing library : LAME3.97

~Thai ~HQ. 16:9 Widescreen ~NO MASK
Added2015-06-17 02:22:05
Size539.61 MB (565,819,392 bytes)
Num files1 files