♺ KO - Kuruu - Naked Housekeeping Salaryman (全裸家政夫リーマン) [KUR17][KKUR014]

CategoryAsian
Download
You need to Login or Signup first.
DescriptionOriginal upload: 2012-11-09 |
こんな家政夫が欲しかった…衝撃の新企画!!全裸家政夫リーマン派遣所!!
貴方に夢のサービスをお届けします!!

1、『そんなんしてたら掃除おわらんで、あかん、そこ気持ちいい…』現役ボディビルダ―のエロ家政夫!
パンパンの筋肉にエプロン姿…掃除中に始まるエロ行為、『俺が家政夫してる間は俺の筋肉好きにしてええんやで』
2、『俺エロマッサージ得意っすよw』サービス満点元柔道部の性感マッサージ!
『とりあえず洗濯物たたみますね』洗濯たたみながらスーツの下でなぜか膨らんでいくチンポ…
『もしかして逆に興奮してるの?やらしいね、君…』
3、『いってらっしゃいませ』ご主人が外出中に部屋を綺麗にしていく短髪髭家政婦、そして…
『おかえりなさいませ、今日も一晩中お使いください。』ケツも掃除して目隠し待機でご主人お迎え!トロマンコで最高のサービス開始!!
4、『おかえり、今日は肉じゃがだよ☆はい、あーーん』家事、洗濯、食事に掃除。
まるで恋人が出来たみたいな気分に。もちろんその後はたっぷり…

全員一重の体育会家政夫集団!!一度はやってみたい夢の願望!!貴方はどの家政夫がお好みですか?

General
Complete name                            : /Volumes/OMEGA/[kuruu] Naked Housekeeping Salaryman [KUR17].mp4
Format                                  : MPEG-4
Codec ID                                : M4V
File size                                : 1.97 GiB
Duration                                : 2h 23mn
Overall bit rate mode                    : Variable
Overall bit rate                        : 1 969 Kbps
Encoded date                            : UTC 2012-07-27 23:13:38
Tagged date                              : UTC 2012-07-27 23:13:38

Video
ID                                      : 1
Format                                  : AVC
Format/Info                              : Advanced Video Codec
Format profile                          : Main@L4.1
Format settings, CABAC                  : Yes
Format settings, ReFrames                : 4 frames
Frame mode                              : Frame doubling
Codec ID                                : avc1
Codec ID/Info                            : Advanced Video Coding
Duration                                : 2h 23mn
Bit rate mode                            : Variable
Bit rate                                : 1 895 Kbps
Maximum bit rate                        : 15.0 Mbps
Width                                    : 1 280 pixels
Height                                  : 720 pixels
Display aspect ratio                    : 16:9
Frame rate mode                          : Constant
Frame rate                              : 29.970 fps
Color space                              : YUV
Chroma subsampling                      : 4:2:0
Bit depth                                : 8 bits
Scan type                                : Progressive
Bits/(Pixel*Frame)                      : 0.069
Stream size                              : 1.90 GiB (96%)
Writing library                          : x264 core 125 r2200 999b753
Encoding settings                        : cabac=1 / ref=4 / deblock=1:-1:-1 / analyse=0x1:0x131 / me=umh / subme=10 / psy=1 / psy_rd=1.00:0.15 / mixed_ref=1 / me_range=24 / chroma_me=1 / trellis=2 / 8x8dct=0 / cqm=0 / deadzone=21,11 / fast_pskip=1 / chroma_qp_offset=-3 / threads=9 / lookahead_threads=1 / sliced_threads=0 / slices=4 / nr=32 / decimate=1 / interlaced=0 / bluray_compat=1 / constrained_intra=0 / bframes=3 / b_pyramid=0 / b_adapt=2 / b_bias=0 / direct=3 / weightb=0 / open_gop=0 / weightp=0 / keyint=60 / keyint_min=1 / scenecut=40 / intra_refresh=0 / rc_lookahead=60 / rc=2pass / mbtree=1 / bitrate=1895 / ratetol=1.0 / qcomp=0.60 / qpmin=0 / qpmax=69 / qpstep=4 / cplxblur=20.0 / qblur=0.5 / vbv_maxrate=15000 / vbv_bufsize=15000 / nal_hrd=vbr / ip_ratio=1.40 / aq=1:1.00
Language                                : Japanese
Encoded date                            : UTC 2012-07-27 23:13:38
Tagged date                              : UTC 2012-07-27 23:14:55
Color primaries                          : BT.709-5, BT.1361, IEC 61966-2-4, SMPTE RP177
Transfer characteristics                : BT.709-5, BT.1361
Matrix coefficients                      : BT.709-5, BT.1361, IEC 61966-2-4 709, SMPTE RP177

Audio
ID                                      : 2
Format                                  : AAC
Format/Info                              : Advanced Audio Codec
Format profile                          : LC
Codec ID                                : 40
Duration                                : 2h 23mn
Bit rate mode                            : Variable
Bit rate                                : 70.4 Kbps
Maximum bit rate                        : 91.0 Kbps
Channel(s)                              : 2 channels
Channel positions                        : Front: L R
Sampling rate                            : 48.0 KHz
Compression mode                        : Lossy
Stream size                              : 72.1 MiB (4%)
Language                                : Japanese
Encoded date                            : UTC 2012-07-27 23:14:53
Tagged date                              : UTC 2012-07-27 23:14:55
Added2015-11-01 23:03:07
Size1.97 GB (2,115,335,542 bytes)
Views975
Num files1 files
Pictures