STEP SPECIAL vol 5 no 27 March 2015 - Step Relax - Palm - Welcome Summer 2015

CategorySolo
Download
You need to Login or Signup first.
DescriptionThai Magazine Step Relax - Palm - Welcome  Summer 2015
Palm Welcome Summer BTS + Unseen

General
Complete name              : STEP.RELAX.SPECIAL.vol.5.no.27.March.2015.Palm.Welcom.Summer.DVDrip.x264-hackz.mp4
Format                      : MPEG-4
Format profile              : Base Media / Version 1
Codec ID                    : mp41
File size                  : 1.19 GiB
Duration                    : 42mn 9s
Overall bit rate mode      : Variable
Overall bit rate            : 4 035 Kbps
Encoded date                : UTC 2015-03-30 03:56:39
Tagged date                : UTC 2015-03-30 03:56:39

Video
ID                          : 1
Format                      : AVC
Format/Info                : Advanced Video Codec
Format profile              : High@L3.0
Format settings, CABAC      : Yes
Format settings, ReFrames  : 2 frames
Format settings, GOP        : M=3, N=49
Muxing mode                : Container profile=Baseline@3.0
Codec ID                    : avc1
Codec ID/Info              : Advanced Video Coding
Duration                    : 42mn 9s
Bit rate mode              : Variable
Bit rate                    : 3 894 Kbps
Maximum bit rate            : 9 947 Kbps
Width                      : 720 pixels
Height                      : 576 pixels
Display aspect ratio        : 16:9
Frame rate mode            : Constant
Frame rate                  : 25.000 fps
Standard                    : PAL
Color space                : YUV
Chroma subsampling          : 4:2:0
Bit depth                  : 8 bits
Scan type                  : Interlaced
Scan order                  : Top Field First
Bits/(Pixel*Frame)          : 0.376
Stream size                : 1.15 GiB (97%)
Language                    : English
Encoded date                : UTC 2015-03-30 03:56:39
Tagged date                : UTC 2015-03-30 03:56:39

Audio
ID                          : 2
Format                      : AAC
Format/Info                : Advanced Audio Codec
Format profile              : LC
Codec ID                    : 40
Duration                    : 42mn 9s
Bit rate mode              : Constant
Bit rate                    : 128 Kbps
Channel(s)                  : 2 channels
Channel positions          : Front: L R
Sampling rate              : 48.0 KHz
Compression mode            : Lossy
Stream size                : 38.6 MiB (3%)
Language                    : English
Encoded date                : UTC 2015-03-30 03:56:39
Tagged date                : UTC 2015-03-30 03:56:39

Added2015-03-30 08:53:49
Size1.19 GB (1,276,071,865 bytes)
Views1
Num files1 files
Pictures