Taken down by DMCA request

Knuckle Sandwich

CategoryFetish
Download
You need to Login or Signup first.
Descriptiongay fetish fisting porn.
bears and hunks in leather fist, dildo, fuck, suck each other.
General
Complete name                  : Knuckle Sandwich - gay fetish porn.mp4
Format                        : MPEG-4
Format profile                : Base Media
Codec ID                      : isom (isom/iso2/avc1/mp41)
File size                      : 1.10 GiB
Duration                      : 1 h 27 min
Overall bit rate              : 1 787 kb/s
Writing application            : Lavf56.25.101

Video
ID                            : 1
Format                        : AVC
Format/Info                    : Advanced Video Codec
Format profile                : High@L3
Format settings, CABAC        : Yes
Format settings, ReFrames      : 5 frames
Codec ID                      : avc1
Codec ID/Info                  : Advanced Video Coding
Duration                      : 1 h 27 min
Bit rate                      : 1 622 kb/s
Width                          : 560 pixels
Height                        : 400 pixels
Display aspect ratio          : 1.400
Frame rate mode                : Constant
Frame rate                    : 25.000 FPS
Color space                    : YUV
Chroma subsampling            : 4:2:0
Bit depth                      : 8 bits
Scan type                      : Progressive
Bits/(Pixel*Frame)            : 0.290
Stream size                    : 1 020 MiB (91%)
Writing library                : x264 core 136
Encoding settings              : cabac=1 / ref=5 / deblock=1:0:0 / analyse=0x3:0x113 / me=hex / subme=8 / psy=1 / psy_rd=1.00:0.00 / mixed_ref=1 / me_range=16 / chroma_me=1 / trellis=0 / 8x8dct=1 / cqm=0 / deadzone=21,11 / fast_pskip=1 / chroma_qp_offset=-2 / threads=36 / lookahead_threads=3 / sliced_threads=0 / nr=0 / decimate=1 / interlaced=0 / bluray_compat=0 / constrained_intra=0 / bframes=2 / b_pyramid=2 / b_adapt=2 / b_bias=0 / direct=3 / weightb=1 / open_gop=0 / weightp=2 / keyint=25 / keyint_min=1 / scenecut=40 / intra_refresh=0 / rc_lookahead=25 / rc=crf / mbtree=1 / crf=18.0 / qcomp=0.60 / qpmin=0 / qpmax=69 / qpstep=4 / ip_ratio=1.40 / aq=1:1.00

Audio
ID                            : 2
Format                        : AAC
Format/Info                    : Advanced Audio Codec
Format profile                : LC
Codec ID                      : 40
Duration                      : 1 h 27 min
Duration_LastFrame            : -8 ms
Bit rate mode                  : Constant
Bit rate                      : 159 kb/s
Channel(s)                    : 2 channels
Channel positions              : Front: L R
Sampling rate                  : 48.0 kHz
Frame rate                    : 46.875 FPS (1024 spf)
Compression mode              : Lossy
Stream size                    : 100 MiB (9%)
Default                        : Yes
Alternate group                : 1


Added2017-07-16 14:17:11
Size1.10 GB (1,179,143,072 bytes)
Views47
Num files1 files
Pictures