Safados net - Trem do Prazer - Carnaval-themed bareback latino threesome

CategoryGroup-Sex
Download
You need to Login or Signup first.
DescriptionTrem do Prazer - Partially subtitled in English, Brazilian Portuguese audio
TrĂªs machos fodem sem limites durante uma festa de Carnaval

Warning: Low resolution video, quality is not that great

  Metadata:
    major_brand    : mp42
    minor_version  : 512
    compatible_brands: isomiso2avc1mp41
    creation_time  : 2016-08-01 16:39:26
    encoder        : HandBrake 0.10.5 2016021100
  Duration: 00:17:41.89, start: 0.000000, bitrate: 495 kb/s
    Stream #0:0(und): Video: h264 (High) (avc1 / 0x31637661), yuv420p(tv, smpte170m), 640x390 [SAR 1:1 DAR 64:39], 395 kb/s, 25 fps, 25 tbr, 90k tbn, 180k tbc (default)
    Metadata:
      creation_time  : 2016-08-01 16:39:26
      handler_name    : VideoHandler
    Stream #0:1(und): Audio: mp3 (mp4a / 0x6134706D), 44100 Hz, stereo, s16p, 95 kb/s (default)
    Metadata:
      creation_time  : 2016-08-01 16:39:26
      handler_name    : Stereo
Added2016-08-01 19:13:25
Size64.24 MB (67,358,819 bytes)
Views99
Num files18 files
Pictures