♺ GayAsianPiss - Wild Side Pt 1 - 720p - Bareback - Remastered

CategoryAsian
Download
You need to Login or Signup first.
DescriptionOriginal upload: 2014-10-30 |
From our friends at GayAsianPiss, another great Bareback Thai Twink video, released as: "Asian Twinks - Wild Side".

Set first in on the streets of Pattaya, then in a Pattaya park, then hidden in the bushes at the park for some quick head, then to bed, this video is notable for the UBER-CUTE Thai boy that gets paired up with our veteren top piss boy.

The younger boy's enthusiasm is contagious, as is his willingness to please, not to mention his super-slim Thai twink body, and his lovely cock, which stays hard from start, to finish.

I'm calling this "Part 1" because the original video was almost 37 minutes long, and contained two fuck scenes, buffered by a shower-piss scene.

This 21 minute "Part 1" contains really the best of the two fuck scenes, and contains the video right up to the end of climax and cum (just prior the shower scene). The second part will contain the shower scene, and the second fuck scene, which was clearly shot not that much later, the same day; it is somewhat less spirited and our cute twink boy isn't so raging hard, but they both cum quite nicely, regardless, in Part 2, too.

As a Remastering project, this one contained some daunting challenges.

First, on the plus side, it was shot in HD 1280 x 720P, with decent lighting and camera work, and I've mentioned the drop-dead cute Thai boy, already.

On the "challenging side"... OMG, EVERY EDIT was defective. On EVERY SINGLE EDIT, following the cut, there were two good frames, followed by a black frame, followed by two duplicate frames, which were missing a few frames of action, in-between.

Thus the second of the repeated frames (the fifth frame after the cut) was the first usable frame for the next shot, and 4 frames had to be discarded, 53 times, to be exact, and that is just for this Part 1. I haven't even started part 2 yet, for obvious (mental fatigue) reasons.

To add to the complexity of this project, since the video was REALLY so damn fine, and the TALENT was really SO DAMN FINE, I decided to take this project one step further, and make ALL of the (repaired) cuts, into dissolves. Luckily, I very recently discovered a nifty filter for VirtualDub that will perform 4 of these dissolves at a time for me, so... adding 13 of these filters, and running it through the required pre-build and post-processes, did the trick, with an amazing professional polished look, to the result.

Regarding the lighting... for some reason 2/3 of the way through the fuck scene, the lighting started to fade.  I was then forced to add first an 8% boost to the "Intensity", soon followed by a 14% boost, to the end of the scene. There was a moderate (16 of 64) "Sharpening" effect added, too. The re-encoding was performed using the xvid two-pass method, creating a database of frame by frame movement in the first pass, and a second endoding pass using variable bit-rate to preserve the exact optimum bit rate, preserving ALL of the original and enhanced picture detail and quality.

SO FAR this project has gobbled up 555 GB of hard disk space... Which is kind of funny, since the Thai word for 5 is Hah!  So this is a project-code-name... Hahaha! for this project.

BUT the end result is no laughing matter... it is... nothing short of a masterpiece, and again, due largely to the beauty of this lovely Thai bottom boy.

I'm pretty sure he is featured in my best dreams, nowadays, and after watching this video, I think you will understand why, and quite possibly share my dream episodes with this cute Thai boy...

75 of the highlight captured frames pictures are included, for your enjoyment.

Enjoy!!!
==================Detailed Technical Specs=======================
[General] Complete name : GayAsianPiss - Wild Side Pt.1 - 720p - Bareback - Remastered.avi
Format : AVI
Format/Info : Audio Video Interleave
File size : 907 MiB
Duration : 21mn 36s
Overall bit rate : 5 869 Kbps
Writing library : VirtualDub build 32839/release

[Video] ID : 0
Format : MPEG-4 Visual
Format profile : Advanced Simple@L5
Format settings, BVOP : 2
Format settings, QPel : No
Format settings, GMC : No warppoints
Format settings, Matrix : Default (MPEG)
Muxing mode : Packed bitstream
Codec ID : XVID
Codec ID/Hint : XviD
Duration : 21mn 36s
Bit rate : 5 732 Kbps
Width : 1 280 pixels
Height : 720 pixels
Display aspect ratio : 16:9
Frame rate : 25.000 fps
Color space : YUV
Chroma subsampling : 4:2:0
Bit depth : 8 bits
Scan type : Progressive
Compression mode : Lossy
Bits/(Pixel*Frame) : 0.249
Stream size : 886 MiB (98%)
Writing library : XviD 64

[Audio] ID : 1
Format : MPEG Audio
Format version : Version 1
Format profile : Layer 3
Mode : Joint stereo
Mode extension : MS Stereo
Codec ID : 55
Codec ID/Hint : MP3
Duration : 21mn 36s
Bit rate mode : Constant
Bit rate : 128 Kbps
Channel count : 2 channels
Sampling rate : 44.1 KHz
Compression mode : Lossy
Stream size : 19.8 MiB (2%)
Alignment : Split accross interleaves
Interleave, duration : 40 ms (1.00 video frame)
Interleave, preload duration : 500 ms
Writing library : LAME3.98.4

Added2016-07-11 10:06:06
Size934.00 MB (979,374,696 bytes)
Views268
Num files3 files
Pictures