Benched Blacks Bareback

CategoryBlack
Download
You need to Login or Signup first.
DescriptionTwo Blacks fuck bareback on a gym bench. Vintage. 352p x 240p

Format: MPEG-PS
File size: 169 MiB
Duration: 16mn 59s
Overall bit rate: 1 395 Kbps
Writing library: encoded by TMPGEnc 3.0 XPress Version. 3.0.4.24

Video
ID: 224 (0xE0)
Format: MPEG Video
Format version: Version 1
Format settings, BVOP: Yes
Format settings, Matrix: Custom
Format settings, GOP: M=3, N=18
Duration: 16mn 59s
Bit rate: 1 150 Kbps
Width: 352 pixels
Height: 240 pixels
Display aspect ratio: 4:3
Frame rate: 29.970 fps
Standard: NTSC
Color space: YUV
Chroma subsampling: 4:2:0
Bit depth: 8 bits
Scan type: Progressive
Compression mode: Lossy
Bits/(Pixel*Frame): 0.454
Time code of first frame: 00:00:00:00
Time code source: Group of pictures header
GOP, Open/Closed: Open
GOP, Open/Closed of first frame          : Closed
Stream size: 139 MiB (82%)
Writing library: TMPGEnc 3.0 XPress Version. 3.0.4.24

Audio
ID: 192 (0xC0)
Format: MPEG Audio
Format version: Version 1
Format profile: Layer 2
Duration: 16mn 59s
Bit rate mode: Constant
Bit rate: 224 Kbps
Channel(s): 2 channels
Sampling rate: 44.1 KHz
Compression mode: Lossy
Stream size: 27.2 MiB (16%)
Added2015-12-06 15:53:40
Size169.48 MB (177,709,308 bytes)
Views2
Num files1 files
Pictures