Taken down by DMCA request

the london massive 1

You need to Login or Signup first.
DescriptionLucky number three from UK Naked Men is the Monsters of Cock Special. With yards of uncut, stiff dicks, tearing up hot, tight, willing holes. From the phenomenal Matt Hughes via the foot-long Gift, to the huge hung newcomer Vladimir; these are the choicest, meatiest cuts exclusive to DVD." Cast: Matt Hughes, Vladimir, B.JDrew, Harry Louis, Ivo Costa, Paulo Betolli, Ross Hurston, Gift, Matt, Kyle Lucas Director: Jonno Editor: Butch Dixon Producer: Jonno Country: Great Britain Year: 2007 Studio : UK Naked Men

Format: AVI
Format/Info: Audio Video Interleave
File size: 1.85 GiB
Duration: 2h 36mn
Overall bit rate: 1 691 Kbps

ID: 0
Format: MPEG-4 Visual
Format profile: Simple@L3
Format settings, BVOP: No
Format settings, QPel: No
Format settings, GMC: No warppoints
Format settings, Matrix: Default (H.263)
Codec ID: XVID
Codec ID/Hint: XviD
Duration: 2h 36mn
Bit rate: 1 550 Kbps
Width: 640 pixels
Height: 480 pixels
Display aspect ratio: 4:3
Frame rate: 29.970 fps
Original frame rate: 29.000 fps
Color space: YUV
Chroma subsampling: 4:2:0
Bit depth: 8 bits
Scan type: Progressive
Compression mode: Lossy
Bits/(Pixel*Frame): 0.168
Stream size: 1.70 GiB (92)
Writing library: XviD 1.2.1 (UTC 2008-12-04)

ID: 1
Format: MPEG Audio
Format version: Version 1
Format profile: Layer 3
Mode: Joint stereo
Mode extension: MS Stereo
Codec ID: 55
Codec ID/Hint: MP3
Duration: 2h 36mn
Bit rate mode: Constant
Bit rate: 128 Kbps
Channel(s): 2 channels
Sampling rate: 44.1 KHz
Compression mode: Lossy
Stream size: 143 MiB (8)
Alignment: Aligned on interleaves
Interleave, duration: 26 ms (0.78 video frame)
Interleave, preload duration: 104 ms
Writing library: LAME3.98.2
Added2016-09-17 20:22:20
Size1.85 GB (1,986,282,496 bytes)
Num files1 files