Taken down by DMCA request

N1ght Flght

CategoryVintage
Download
You need to Login or Signup first.
DescriptionN1ght_Flght -  Vintage Movie from F@l.c0n Stud105

Format: MPEG-4
Format profile: Base Media
Codec ID: isom (mp41)
File size: 520 MiB
Duration: 1h 10mn
Overall bit rate mode: Variable
Overall bit rate: 1 033 Kbps
Movie name: Night Flight
Genre: Independent
ContentType: Short Film
Encoded date: UTC 2012-10-30 23:57:38
Tagged date: UTC 2012-11-11 21:37:05
Cover: Yes

Video
ID: 2
Format: AVC
Format/Info: Advanced Video Codec
Format profile: Baseline@L3
Format settings, CABAC: No
Format settings, ReFrames: 1 frame
Codec ID: avc1
Codec ID/Info: Advanced Video Coding
Duration: 1h 10mn
Bit rate: 900 Kbps
Width: 352 pixels
Height: 264 pixels
Display aspect ratio: 4:3
Frame rate mode: Constant
Frame rate: 30.000 fps
Color space: YUV
Chroma subsampling: 4:2:0
Bit depth: 8 bits
Scan type: Progressive
Bits/(Pixel*Frame): 0.323
Stream size: 453 MiB (87%)
Writing library: @V6
Language: English

Audio
ID: 1
Format: AAC
Format/Info: Advanced Audio Codec
Format profile: LC
Codec ID: 40
Duration: 1h 10mn
Bit rate mode: Variable
Bit rate: 128 Kbps
Maximum bit rate: 218 Kbps
Channel(s): 2 channels
Channel positions: Front: L R
Sampling rate: 44.1 KHz
Frame rate: 43.066 fps (1024 spf)
Compression mode: Lossy
Stream size: 64.4 MiB (12%)
Language: English
Added2015-12-06 16:12:59
Size519.93 MB (545,190,576 bytes)
Views0
Num files1 files
Pictures