♺ OTB Video - Rodrigo & Alex

CategoryLatino
Download
You need to Login or Signup first.
DescriptionOriginal upload: 2010-06-11 |
[OTB] Bareback Fiesta Scene 5, Rodrigo & Alex *H.Q.Color Corrected! ~Latino Twinks

Rodrigo and Alex meet on the street, and go to Alex's apartment to practice some dance moves, which quickly become advanced sexual moves! Amazing scenes here include Alex HOLDING Rodrigo up in the air as he fucks him bareback, and at the end, Alex cumming... and cumming... without even touching his cock! It's an amazing cum shot, one you might play again and again... in slow motion, even..!!! ;)
Color Corrected. Bonus Points Appreciated!
---------------------------------
Personal note: One of my personal favorite scenes from one of my favorite videos, from OTB, three years ago, in need of some color correction.

I'll be uploading all six scenes of Bareback Fiesta, one by one, followed afterwards by an upload of the entire movie, including the opening, and all scenes, edited together.

This is Scene 5. 
Scene 1 (and the opening) is at: http://tracker.gaytorrent.ru/details.php?id=75545
Scene 2 is at: http://tracker.gaytorrent.ru/details.php?id=75604
Scene 3 is at: http://tracker.gaytorrent.ru/details.php?id=75657
Scene 4 is at: http://tracker.gaytorrent.ru/details.php?id=75746

This is a fresh conversion I just created from the original DVD files, deinterlaced, color corrected, and sharpened, just a tad. The conversion was performed by uncompressing the DVD files (to a whopping 312 gigabytes!), then re-encoding, using the Xvid codec in 2-pass mode, first to detect motion, then to utilize Variable Bit Rate Xvid Encoding (based on detail and motion), for the most efficient Video Compression, achieving a uniform look of high quality; PLUS MP3 audio, resulting in the most reasonable file size posible, considering the quality. This video has a Gspot Qf (Quality Factor) of .256, for High Quality, very near-DVD quality. Enjoy!

Any bonus points that you can afford to grant me for my efforts would be greatly appreciated! It obviously took me a LOT of time to color correct ALL these 6 scenes, requiring many different settings when the lighting or location changed, within the scene. 

In as I'm usually downloading DVDs to convert, process, and perhaps color correct, to offer here, I struggle to maintain my UL/DL ratio; and your gift would certainly help me, in this regard. Thanks!
---------------------------------
DVD Title: Bareback Fiesta
Studio: OTB
Label: Starboyz
Series: Twink Cum Club
Scene 5: He's a Natural! Starring Rodrigo and Alex
Date of Production: April 4, 2007
Duration: 25 minutes
----------------------------------
Multimedia Analysis of:  [OTB] Bareback Fiesta - Scene 5.avi
General:
Complete name : [OTB] Bareback Fiesta - Scene 5.avi
Format : AVI
Format/Info : Audio Video Interleave
File size : 496 MiB
Duration : 24mn 51s
Overall bit rate : 2 789 Kbps
Writing application : VirtualDubMod 1.5.10.2 (build 2542/release)
Writing library : VirtualDubMod build 2542/release

Video  ID : 0
Format : MPEG-4 Visual
Format profile : Advanced Simple@L5
Format settings, BVOP : Yes
Format settings, QPel : No
Format settings, GMC : No warppoints
Format settings, Matrix : Default (MPEG)
Muxing mode : Packed bitstream
Codec ID : XVID
Codec ID/Hint : XviD
Duration : 24mn 51s
Bit rate : 2 650 Kbps
Width : 720 pixels
Height : 480 pixels
Display aspect ratio : 4:3
Frame rate : 29.970 fps
Standard : NTSC
Resolution : 8 bits
Colorimetry : 4:2:0
Scan type : Progressive
Bits/(Pixel*Frame) : 0.256
Stream size : 471 MiB (95%)
Writing library : XviD 1.2.1 (UTC 2008-12-04)

Audio  ID : 1
Format : MPEG Audio
Format version : Version 1
Format profile : Layer 3
Mode : Joint stereo
Format_Settings_ModeExtension : MS Stereo
Codec ID : 55
Codec ID/Hint : MP3
Duration : 24mn 51s
Bit rate mode : Constant
Bit rate : 128 Kbps
Channel(s) : 2 channels
Sampling rate : 48.0 KHz
Stream size : 22.8 MiB (5%)
Alignment : Aligned on interleaves
Interleave, duration : 33 ms (1.00 video frame)
Interleave, preload duration : 504 ms

Added2014-08-05 15:25:05
Size496.44 MB (520,554,921 bytes)
Views1819
Num files2 files
Pictures