♺ Anime - Sensitive Pornograph - uncensored

CategoryComic & Yaoi
Download
You need to Login or Signup first.
DescriptionOriginal upload: 2008-08-21

Japanese with English subtitles. Uncensored.


Sensitive Pornograph (Senshitibu Porunogurafu) is a yaoi anime.
There is little plot, and the piece revolves around graphic sexual
intercourse. The anime is based on a manga by the same name, by
mangaka Ashika Sakura. It has one episode which is made up of two
separate and unconnected parts.


Spoiler warning: Plot or ending details follow.

Part One

The story begins with Seiji Yamada, a young manga artist, who
develops an affair with a fellow mangaka named Sono Hanasaki. The
plot-line develops from Yamada mistaking Sono for a girl. After
having discovered him to be a boy, Seiji still falls in love with
him, and they have an intimate affair. Seiji becomes distraught when
he learns of Sono's past tendencies of sleeping around, and for a
time the two become separated. However, they eventually reconcile
after Seiji learns of the emotional damage Sono has suffered as a
result of being abandoned from being used only for sex.


Part Two

This second part is considerably longer with a more romantic tone
than the first part. There is graphic sex throughout the entire
story. The second part begins with Ueno, a student in college who
works part-time as a pet sitter, receives an assignment to take care
of a rabbit.

Upon arriving at the specified address looking for a rabbit named
Aki, he finds that there is no rabbit, instead he discovers a young
man bound, naked, in a closet, apparently working as a sex slave to
the man who hired him. Ueno is persuaded to have sex with Aki, and
does so, being the active partner. Aki then encourages Ueno to leave
before his "master" returns, who has been watching from his car with
a hidden camera. After Ueno leaves and the man returns. Aki angrily
announces that he is going to quit.

At some unspecified but close later date, Ueno encounters Aki at his
school, albeit bandaged and with a broken arm (apparently inflicted
by his master), and it is revealed that he is also a student at the
same college. The scene ends with hints that the two may continue
their relationship.


Enjoy!


Format/Info                      : Audio Video Interleave
File size                        : 246 MiB
Duration                        : 30mn 55s
Overall bit rate                : 1 111 Kbps
Format settings, Matrix          : Default (H.263)
Muxing mode                      : Packed bitstream
Codec ID                        : XVID
Codec ID/Hint                    : XviD
Duration                        : 30mn 55s
Bit rate                        : 972 Kbps
Width                            : 640 pixels
Height                          : 480 pixels
Display aspect ratio            : 4:3
Frame rate                      : 29.970 fps
Color space                      : YUV
Chroma subsampling              : 4:2:0
Bit depth                        : 8 bits
Scan type                        : Progressive
Compression mode                : Lossy
Bits/(Pixel*Frame)              : 0.106
Stream size                      : 215 MiB (87%)
Writing library                  : XviD 1.0.3 (UTC 2004-12-20)

Audio
ID                              : 1
Format                          : MPEG Audio
Format version                  : Version 1
Format profile                  : Layer 3
Mode                            : Joint stereo
Mode extension                  : MS Stereo
Codec ID                        : 55
Codec ID/Hint                    : MP3
Duration                        : 30mn 55s
Bit rate mode                    : Constant
Bit rate                        : 128 Kbps
Channel(s)                      : 2 channels
Sampling rate                    : 48.0 KHz
Compression mode                : Lossy
Stream size                      : 28.3 MiB (12%)
Alignment                        : Aligned on interleaves
Interleave, duration            : 33 ms (1.00 video frame)
Interleave, preload duration    : 504 ms
Added2015-03-31 02:14:05
Size251.41 MB (263,625,489 bytes)
Views4338
Num files20 files
Pictures