Taken down by DMCA request

NextDoorMale - 64816 - James Roxxbury 20140428

CategorySolo
Download
You need to Login or Signup first.
DescriptionJames Roxxbury is a mighty mite with some sweet baby blues, fresh from New Jersey. Young, willing and able, James doesn't waste much time getting down to business, stripping out of his workout clothes and reclining back on a recliner. He pulls his soccer shorts off his legs, perching up onto the recliner and spreading his cheeks as he bends over, fingering his hole delicately before flipping back over and working his beet red cock. Throwing his back against the chair, he closes his eyes and flogs away, stroking himself and cupping his balls before launching his sweaty load all over himself.

Enjoy!

Format                                  : MPEG-4
Format profile                          : Base Media
Codec ID                                : isom
File size                                : 1,02 GiB
Duration                                : 29min
Overall bit rate mode                    : variabel
Overall bit rate                        : 4 970 Kbps
Movie name                              : James Roxxbury
Recorded date                            : 0
Encoded date                            : UTC 1970-01-01 00:00:00
Tagged date                              : UTC 1970-01-01 00:00:00
Writing application                      : Lavf52.93.0

Video
ID                                      : 1
Format                                  : AVC
Format/Info                              : Advanced Video Codec
Format profile                          : High@L3.1
Format settings, CABAC                  : Ja
Format settings, ReFrames                : 4 frames
Codec ID                                : avc1
Codec ID/Info                            : Advanced Video Coding
Duration                                : 29min
Bit rate                                : 4 800 Kbps
Width                                    : 1 280 Pixel
Height                                  : 720 Pixel
Display aspect ratio                    : 16:9
Frame rate mode                          : konstant
Frame rate                              : 29,970 FPS
Color space                              : YUV
Chroma subsampling                      : 4:2:0
Bit depth                                : 8 bits
Scan type                                : progressiv
Bits/(Pixel*Frame)                      : 0.174
Stream size                              : 1 010 MiB (97%)
Writing library                          : x264 core 107
Audio
ID                                      : 2
Format                                  : AAC
Format/Info                              : Advanced Audio Codec
Format profile                          : LC
Codec ID                                : 40
Duration                                : 29min
Bit rate mode                            : variabel
Bit rate                                : 152 Kbps
Channel(s)                              : 2 Kanäle
Channel positions                        : Front: L R
Sampling rate                            : 44,1 KHz
Stream size                              : 31,9 MiB (3%)
Encoded date                            : UTC 1970-01-01 00:00:00
Tagged date                              : UTC 1970-01-01 00:00:00


Added2015-05-22 21:44:28
Size1.02 GB (1,093,777,010 bytes)
Views0
Num files1 files
Pictures