♺ Handsome Japanese Guy 2(No Mask)

CategoryAsian
Download
You need to Login or Signup first.
DescriptionOriginal upload: 2014-03-10 |
He's handsome and sexy

General
Complete name                  : F:! ( NEW) ! gay japan - [heydouga.com] 4101-176 - 人気No1な彼を大解剖SP-その2 電マ&オナニー [no mask] (866 853 617).wmv
Format                        : Windows Media
File size                      : 827 MiB
Duration                      : 54 min
Overall bit rate mode          : Constant
Overall bit rate              : 2 138 kb/s
Maximum Overall bit rate      : 2 144 kb/s
Encoded date                  : UTC 2013-01-08 05:28:51.978
MediaFoundationVersion        : 2.112

Video
ID                            : 1
Format                        : VC-1
Format profile                : Main
Codec ID                      : WMV3
Codec ID/Info                  : Windows Media Video 9
Codec ID/Hint                  : WMV3
Duration                      : 54 min
Bit rate mode                  : Constant
Bit rate                      : 2 000 kb/s
Width                          : 1 280 pixels
Height                        : 720 pixels
Display aspect ratio          : 16:9
Frame rate                    : 30.000 FPS
Color space                    : YUV
Chroma subsampling            : 4:2:0
Bit depth                      : 8 bits
Scan type                      : Progressive
Compression mode              : Lossy
Bits/(Pixel*Frame)            : 0.072
Stream size                    : 773 MiB (94%)
Language                      : English (US)

Audio
ID                            : 2
Format                        : WMA
Format version                : Version 2
Codec ID                      : 161
Codec ID/Info                  : Windows Media Audio
Duration                      : 54 min
Bit rate mode                  : Constant
Bit rate                      : 128 kb/s
Channel(s)                    : 2 channels
Sampling rate                  : 48.0 kHz
Bit depth                      : 16 bits
Stream size                    : 49.5 MiB (6%)
Language                      : English (US)
Added2016-08-13 23:01:01
Size826.70 MB (866,853,617 bytes)
Views459
Num files1 files
Pictures