All About The Nut

CategoryBlack
Download
You need to Login or Signup first.
DescriptionHott Shyt - All About The Nut


Format: AVI
Format/Info: Audio Video Interleave
File size: 1.17 GiB
Duration: 1h 39mn
Overall bit rate mode: Variable
Overall bit rate: 1 684 Kbps
Writing application: VirtualDubMod 1.5.4.1 (build 2178/release)
Writing library: VirtualDubMod build 2178/release

Video
ID: 0
Format: MPEG-4 Visual
Format profile: Advanced Simple@L5
Format settings, BVOP: 1
Format settings, QPel: No
Format settings, GMC: No warppoints
Format settings, Matrix: Custom
Codec ID: XVID
Codec ID/Hint: XviD
Duration: 1h 39mn
Bit rate: 1 495 Kbps
Width: 624 pixels
Height: 464 pixels
Display aspect ratio: 4:3
Frame rate: 29.970 (29970/1000) fps
Color space: YUV
Chroma subsampling: 4:2:0
Bit depth: 8 bits
Scan type: Progressive
Compression mode: Lossy
Bits/(Pixel*Frame): 0.172
Stream size: 1.04 GiB (89%)
Writing library: XviD 1.2.0.dev47 (UTC 2006-11-01)

Audio
ID: 1
Format: MPEG Audio
Format version: Version 1
Format profile: Layer 3
Mode: Joint stereo
Mode extension: MS Stereo
Codec ID: 55
Codec ID/Hint: MP3
Duration: 1h 39mn
Bit rate mode: Variable
Bit rate: 175 Kbps
Nominal bit rate: 192 Kbps
Channel(s): 2 channels
Sampling rate: 48.0 KHz
Compression mode: Lossy
Stream size: 125 MiB (10%)
Alignment: Aligned on interleaves
Interleave, duration: 24 ms (0.72 video frame)
Interleave, preload duration: 569 ms
Writing library: LAME3.97
Encoding settings: -m j -V 4 -q 2 -lowpass 18.6 --abr 192


Added2015-12-06 17:09:56
Size1.17 GB (1,257,103,360 bytes)
Views0
Num files1 files
Pictures