Silve handsome Grandpa suck tow big black cock

CategoryGrey / Older
Download
You need to Login or Signup first.
DescriptionGeneral
Complete name                            : E:It MeSexAsianSilve handsome Grandpa suck tow big black cock.wmv
Format                                  : Windows Media
File size                                : 716 MiB
Duration                                : 46mn 50s
Overall bit rate mode                    : Constant
Overall bit rate                        : 2 137 Kbps
Maximum Overall bit rate                : 2 148 Kbps
Encoded date                            : UTC 2014-10-07 06:23:32.500

Video
ID                                      : 1
Format                                  : VC-1
Format profile                          : MP@HL
Codec ID                                : WMV3
Codec ID/Info                            : Windows Media Video 9
Codec ID/Hint                            : WMV3
Description of the codec                : Windows Media Video 9 - Professional
Duration                                : 46mn 50s
Bit rate mode                            : Constant
Bit rate                                : 2 000 Kbps
Width                                    : 960 pixels
Height                                  : 540 pixels
Display aspect ratio                    : 16:9
Frame rate                              : 29.970 fps
Color space                              : YUV
Chroma subsampling                      : 4:2:0
Bit depth                                : 8 bits
Scan type                                : Progressive
Compression mode                        : Lossy
Bits/(Pixel*Frame)                      : 0.129
Stream size                              : 670 MiB (94%)
Language                                : Japanese

Audio
ID                                      : 2
Format                                  : WMA
Format version                          : Version 2
Codec ID                                : 161
Codec ID/Info                            : Windows Media Audio
Description of the codec                : Windows Media Audio 9.2 - 128 kbps, 48 kHz, stereo 1-pass CBR
Duration                                : 46mn 50s
Bit rate mode                            : Constant
Bit rate                                : 128 Kbps
Channel(s)                              : 2 channels
Sampling rate                            : 48.0 KHz
Bit depth                                : 16 bits
Stream size                              : 42.9 MiB (6%)
Language                                : Japanese


Added2014-10-16 09:15:44
Size716.11 MB (750,894,275 bytes)
Views8
Num files1 files
Pictures