Taken down by DMCA request

LE - Owen Michaels and Trace Kendall - RAW

CategoryAnal
Download
You need to Login or Signup first.
Description"Owen Michaels could easily become a new favorite on Lucas Entertainment -- talk about a beefcake, and he’s a top, so that’s quite exciting for both Trace Kendall and the audience. (Who doesn’t like a top that knows who and what he is? It makes for a harder pounding!) Trace likes being taken control of and Owen likes asserting his authority, so it’s a lot of fun watching their sexual dynamic. This is a gay bareback sex scene from Lucas Entertainment you cannot miss!"

Video
ID                                      : 1
Format                                  : AVC
Format/Info                              : Advanced Video Codec
Format profile                          : Main@L3.2
Format settings, CABAC                  : No
Format settings, ReFrames                : 2 frames
Codec ID                                : avc1
Codec ID/Info                            : Advanced Video Coding
Duration                                : 46mn 19s
Bit rate mode                            : Variable
Bit rate                                : 3 463 Kbps
Maximum bit rate                        : 6 152 Kbps
Width                                    : 1 280 pixels
Clean aperture width                    : 1 248 pixels
Height                                  : 720 pixels
Clean aperture height                    : 702 pixels
Display aspect ratio                    : 16:9
Frame rate mode                          : Constant
Frame rate                              : 24.000 fps
Color space                              : YUV
Chroma subsampling                      : 4:2:0
Bit depth                                : 8 bits
Scan type                                : Progressive
Bits/(Pixel*Frame)                      : 0.157
Stream size                              : 1.12 GiB (93%)
Language                                : English
Encoded date                            : UTC 2014-07-11 17:08:28
Tagged date                              : UTC 2014-07-11 17:13:35
Color range                              : Limited
Color primaries                          : BT.709
Transfer characteristics                : BT.709
Matrix coefficients                      : BT.709

Audio
ID                                      : 2
Format                                  : AAC
Format/Info                              : Advanced Audio Codec
Format profile                          : LC
Codec ID                                : 40
Duration                                : 46mn 19s
Source duration                          : 46mn 19s
Bit rate mode                            : Constant
Bit rate                                : 250 Kbps
Nominal bit rate                        : 320 Kbps
Channel(s)                              : 2 channels
Channel positions                        : Front: L R
Sampling rate                            : 48.0 KHz
Frame rate                              : 46.875 fps (1024 spf)
Compression mode                        : Lossy
Stream size                              : 82.8 MiB (7%)
Source stream size                      : 82.8 MiB (7%)
Language                                : English
Encoded date                            : UTC 2014-07-11 17:08:28
Tagged date                              : UTC 2014-07-11 17:13:35

Added2016-04-17 01:02:15
Size1.20 GB (1,291,981,788 bytes)
Views0
Num files1 files
Pictures