♺ Multiple Cumming Masturbation Session - 4 TIMES in 60 Seconds- Cumming while HANDS-FREE

CategorySolo
Download
You need to Login or Signup first.
DescriptionOriginal upload: 2013-10-23 |
Multiple Cumming Masturbation Session

This boy managed to masturbate, then cum, HANDS-FREE, 4 TIMES in the span of 60 seconds!!!!

Amazing... but true!!!

Remastered; resized, conformed and color corrected.

Enjoy,
Pawpcorn
==================================
[General] Complete name : Multiple Cumming Masturbation Session.avi
Format : AVI
Format/Info : Audio Video Interleave
File size : 38.8 MiB
Duration : 1mn 24s
Overall bit rate : 3 874 Kbps
Writing library : VirtualDub build 32839/release

[Video] ID : 0
Format : MPEG-4 Visual
Format profile : Advanced Simple@L5
Format settings, BVOP : 2
Format settings, QPel : No
Format settings, GMC : No warppoints
Format settings, Matrix : Default (MPEG)
Muxing mode : Packed bitstream
Codec ID : XVID
Codec ID/Hint : XviD
Duration : 1mn 24s
Bit rate : 3 736 Kbps
Width : 640 pixels
Height : 480 pixels
Display aspect ratio : 4:3
Frame rate : 25.000 fps
Color space : YUV
Chroma subsampling : 4:2:0
Bit depth : 8 bits
Scan type : Progressive
Compression mode : Lossy
Bits/(Pixel*Frame) : 0.486
Stream size : 37.4 MiB (96%)
Writing library : XviD 64

[Audio] ID : 1
Format : MPEG Audio
Format version : Version 1
Format profile : Layer 3
Mode : Joint stereo
Mode extension : MS Stereo
Codec ID : 55
Codec ID/Hint : MP3
Duration : 1mn 23s
Bit rate mode : Constant
Bit rate : 128 Kbps
Channel(s) : 2 channels
Sampling rate : 48.0 KHz
Compression mode : Lossy
Stream size : 1.28 MiB (3%)
Alignment : Split accross interleaves
Interleave, duration : 40 ms (1.01 video frame)
Interleave, preload duration : 500 ms

Added2016-06-21 14:06:08
Size42.18 MB (44,226,489 bytes)
Views89
Num files19 files
Pictures