♺ Threshold Media - Raw Power Bottoms DVDrip

CategoryBareback
Download
You need to Login or Signup first.
DescriptionOriginal upload: 2011-03-30 |
The men in “Raw Power Bottoms”, a bareback flick from ThreshHold Media, prove that a good fuck is worth the energy.

First we have the cutie who’s in a leather harness that’s suspended from the ceiling. After he gets his dick sucked, he crawls out of the harness and gets his ass plowed. That’s hot. The third scene is a three-way in which Scout, this time smooth and clean shaven, gets his hole fucked every-which-way, including up. But it’s the second scene where things get really interesting, when we find the perfect steamy marriage of man and machine.

The three muscle numbers involved are sex maniacs in their own right. Even so, after the two masculine tops plunk the equally buff bottom down on this huge, silver, swiveling disc (think sexual “lazy Suzan”), they take turns fucking his ass by a simple spin of the wheel. Then, they introduce their bottom’s butt to a “fucking machine”; an energetic devise who’s business end is a huge dildo on a long, silver pole. This bottom has never been happier. You can almost see his ass crack a smile as it eagerly accepts its robotic ramming. After watching this joy ride for a while, the two tops, not satisfied with letting a machine do a man’s job, resume their own, energetic, bareback fuck-fest.

Scout discovers “better fucking through technology” in the third scene as well, which brings me to my point: In “Raw Power Bottoms”, whether its pounding steel or throbbing flesh, a good ass ramming is electric.

Cast: Robby Mendez, Mind G , Spit, Jock Ripper, Rusty Waters, Dawson Denton, Scout, Obi

Director: Kevin Chain
Producers: Scott Morris, Gord Reece
Videography: Kevin Chain/ Viper
Editing: Gaylord Fucker
Credits: Gord Reece
DVD Author: Gord Reece
DVD Features: Scene selection, Loop Play, Gallery , Previews

=====================

General
Complete name                    : Y:\Download\Threshold.Media.Raw.Power.Bottoms.2008.DVD.AAC.x264\Threshold.Media.Raw.Power.Bottoms.2008.DVD.AAC.x264.mp4
Format                          : MPEG-4
Format profile                  : Base Media
Codec ID                        : isom
File size                        : 1.46 GiB
Duration                        : 1h 53mn
Overall bit rate                : 1 834 Kbps
Movie name                      : Raw Power Bottoms
Encoded date                    : 2008
Tagged date                      : UTC 2011-03-27 16:11:33
Cover                            : Yes

Video
ID                              : 1
Format                          : AVC
Format/Info                      : Advanced Video Codec
Format profile                  : Main@L3.0
Format settings, CABAC          : No
Format settings, ReFrames        : 4 frames
Format settings, GOP            : M=4, N=16
Codec ID                        : avc1
Codec ID/Info                    : Advanced Video Coding
Duration                        : 1h 53mn
Bit rate mode                    : Variable
Bit rate                        : 1 741 Kbps
Maximum bit rate                : 5 244 Kbps
Width                            : 720 pixels
Height                          : 400 pixels
Display aspect ratio            : 16:9
Frame rate mode                  : Constant
Frame rate                      : 29.970 fps
Color space                      : YUV
Chroma subsampling              : 4:2:0
Bit depth                        : 8 bits
Scan type                        : Progressive
Bits/(Pixel*Frame)              : 0.202
Stream size                      : 1.38 GiB (95%)
Title                            : @
Writing library                  : x264 core 114 r1913 5fd3dce
Encoding settings                : cabac=0 / ref=1 / deblock=1:0:0 / analyse=0x1:0x111 / me=hex / subme=7 / psy=1 / psy_rd=1.00:0.00 / mixed_ref=0 / me_range=16 / chroma_me=1 / trellis=0 / 8x8dct=0 / cqm=0 / deadzone=21,11 / fast_pskip=1 / chroma_qp_offset=-2 / threads=6 / sliced_threads=0 / nr=0 / decimate=1 / interlaced=0 / constrained_intra=0 / bframes=3 / b_pyramid=2 / b_adapt=1 / b_bias=0 / direct=0 / weightb=0 / open_gop=0 / weightp=2 / keyint=250 / keyint_min=25 / scenecut=40 / intra_refresh=0 / rc_lookahead=40 / rc=2pass / mbtree=1 / bitrate=1741 / ratetol=1.0 / qcomp=0.60 / qpmin=0 / qpmax=69 / qpstep=4 / cplxblur=20.0 / qblur=0.5 / vbv_maxrate=10000 / vbv_bufsize=10000 / nal_hrd=none / ip_ratio=1.40 / aq=1:1.00
Encoded date                    : UTC 2011-03-28 15:51:58
Tagged date                      : UTC 2011-03-27 16:13:44

Audio
ID                              : 2
Format                          : AAC
Format/Info                      : Advanced Audio Codec
Format profile                  : HE-AAC / LC
Codec ID                        : 40
Duration                        : 1h 53mn
Bit rate mode                    : Variable
Bit rate                        : 89.9 Kbps
Maximum bit rate                : 119 Kbps
Channel(s)                      : 4 channels
Channel positions                : Front: L C R, Side: C
Sampling rate                    : 48.0 KHz / 24.0 KHz
Compression mode                : Lossy
Stream size                      : 73.1 MiB (5%)
Encoded date                    : UTC 2011-03-27 16:12:37
Tagged date                      : UTC 2011-03-27 16:13:44


Added2015-04-07 08:06:05
Size1.46 GB (1,564,486,145 bytes)
Views4128
Num files4 files
Pictures