Taken down by DMCA request

♺ Fisting Orgy Hardcore

CategoryAnal
Download
You need to Login or Signup first.
DescriptionOriginal upload: 2013-06-30 |
General
Complete name                            : fisting orgy hardcore.avi
Format                                  : AVI
Format/Info                              : Audio Video Interleave
File size                                : 217 MiB
Duration                                : 27mn 7s
Overall bit rate                        : 1 119 Kbps
Writing library                          : VirtualDub build 24469/release

Video
ID                                      : 0
Format                                  : MPEG-4 Visual
Format profile                          : Advanced Simple@L5
Format settings, BVOP                    : 1
Format settings, QPel                    : No
Format settings, GMC                    : No warppoints
Format settings, Matrix                  : Custom
Codec ID                                : XVID
Codec ID/Hint                            : XviD
Duration                                : 27mn 7s
Bit rate                                : 980 Kbps
Width                                    : 672 pixels
Height                                  : 384 pixels
Display aspect ratio                    : 16:9
Frame rate                              : 29.970 fps
Color space                              : YUV
Chroma subsampling                      : 4:2:0
Bit depth                                : 8 bits
Scan type                                : Progressive
Compression mode                        : Lossy
Bits/(Pixel*Frame)                      : 0.127
Stream size                              : 190 MiB (88%)
Writing library                          : XviD 1.2.0SMP (UTC 2006-01-08)

Audio
ID                                      : 1
Format                                  : MPEG Audio
Format version                          : Version 1
Format profile                          : Layer 3
Mode                                    : Joint stereo
Mode extension                          : MS Stereo
Codec ID                                : 55
Codec ID/Hint                            : MP3
Duration                                : 27mn 7s
Bit rate mode                            : Constant
Bit rate                                : 128 Kbps
Channel(s)                              : 2 channels
Sampling rate                            : 48.0 KHz
Compression mode                        : Lossy
Stream size                              : 24.8 MiB (11%)
Alignment                                : Aligned on interleaves
Interleave, duration                    : 33 ms (1.00 video frame)
Interleave, preload duration            : 504 ms
Writing library                          : LAME3.97 (beta)

tags: oral, anal, fist, train
Added2016-04-17 17:08:06
Size217.23 MB (227,779,680 bytes)
Views4
Num files1 files
Pictures