HD CamShow Kato pp96's 2017-06-11

CategoryAsian
Download
You need to Login or Signup first.
DescriptionAll my uploads:

HD CamShow Jerkoffincali's 2017-06-23
https://www.gaytorrent.ru/details.php?returnto=%2Fmytorrents.php&id=e0ad9d63c43deb9cc8af13ea266f78c16bf07f5ae5867a40

HD CamShow Yummyalexxx's 2017-06-21
https://www.gaytorrent.ru/details.php?returnto=%2Fmytorrents.php&id=be5913d2e2809173c8af13ea266f78c190a97b0ee1f4608b

HD CamShow Colinpitte's 2017-06-15
https://www.gaytorrent.ru/details.php?returnto=%2Fmytorrents.php&id=1e316ae295379fe2c8af13ea266f78c1af8df27df1da3508

HD CamShow Skeepywashere 's 2017-06-07
https://www.gaytorrent.ru/details.php?returnto=%2Fmytorrents.php&id=d3d1f2b874590c7dc8af13ea266f78c1bfcc086eab8d9b95

HD CamShow Nathan's 2017-05-22
https://www.gaytorrent.ru/details.php?returnto=%2Fmytorrents.php&id=dffd02ded72034e5c8af13ea266f78c153ef5ee73707aff9

HD CamShow Yummyalexxx's 2017-05-29
https://www.gaytorrent.ru/details.php?returnto=%2Fmytorrents.php&id=9b1b7023d458eb18c8af13ea266f78c1cbdd89524b471609

HD CamShow Scott brasher's 2017-05-14
https://www.gaytorrent.ru/details.php?returnto=%2Fmytorrents.php&id=ecc8873c34e10cdec8af13ea266f78c16d7f3e6f9991db53

HD CamShow Yummyalexxx 2017-05-08
https://www.gaytorrent.ru/details.php?returnto=%2Fmytorrents.php&id=6ecf5d4fff5c9133c8af13ea266f78c1a7a4cc404236eb1c

HD CamShow Courtshipdating 2017-05-07
https://www.gaytorrent.ru/details.php?returnto=%2Fmytorrents.php&id=a1ad6bf2cb819428c8af13ea266f78c1aeb1391fa6ad5faa

HD CamShow Mrzeek 2017-04-24
https://www.gaytorrent.ru/details.php?returnto=%2Fmytorrents.php&id=3e9f281357f12114c8af13ea266f78c1030edd35679c8379

HD CamShow Hermestouch 2017-04-21
https://www.gaytorrent.ru/details.php?returnto=%2Fmytorrents.php&id=42432c36a46fa283c8af13ea266f78c19e55177f15f72596

HD CamShow (Short) Colinpitte 2017-04-19
https://www.gaytorrent.ru/details.php?returnto=%2Fmytorrents.php&id=af23841e55000ceac8af13ea266f78c16a17e992d9e4c583

HD CamShow SportyJohnny 2017-04-16
https://www.gaytorrent.ru/details.php?returnto=%2Fmytorrents.php&id=b25e32ba2badec21c8af13ea266f78c17a52c2b338606d1d


-----This:-----

Video
ID                          : 1
Format                      : HEVC
Format/Info                : High Efficiency Video Coding
Format profile              : Main@L3.1@Main
Codec ID                    : hvc1
Codec ID/Info              : High Efficiency Video Coding
Duration                    : 9 min 26 s
Bit rate                    : 1 178 kb/s
Width                      : 952 pixels
Height                      : 720 pixels
Display aspect ratio        : 4:3
Frame rate mode            : Variable
Frame rate                  : 30.000 FPS
Minimum frame rate          : 29.970 FPS
Maximum frame rate          : 30.030 FPS
Color space                : YUV
Chroma subsampling          : 4:2:0
Bit depth                  : 8 bits
Bits/(Pixel*Frame)          : 0.057
Stream size                : 79.5 MiB (90%)
Language                    : English
Encoded date                : UTC 2017-06-11 03:32:56
Tagged date                : UTC 2017-06-11 03:32:56

Audio
ID                          : 2
Format                      : AAC
Format/Info                : Advanced Audio Codec
Format profile              : LC
Codec ID                    : 40
Duration                    : 9 min 26 s
Bit rate mode              : Variable
Bit rate                    : 119 kb/s
Maximum bit rate            : 171 kb/s
Channel(s)                  : 2 channels
Channel positions          : Front: L R
Sampling rate              : 48.0 kHz
Frame rate                  : 46.875 FPS (1024 spf)
Compression mode            : Lossy
Stream size                : 8.03 MiB (9%)
Language                    : English
Encoded date                : UTC 2017-06-11 03:32:56
Tagged date                : UTC 2017-06-11 03:32:56
Added2017-07-02 19:09:50
Size88.13 MB (92,414,021 bytes)
Views150
Num files1 files
Pictures