Taken down by DMCA request

KB - Lucio Saints & Marcelo

CategoryAnal
Download
You need to Login or Signup first.
DescriptionGeneral
Complete name              : KB - Lucio Saints & Marcelo.mp4
Format                      : MPEG-4
Format profile              : Base Media / Version 2
Codec ID                    : mp42 (isom)
File size                  : 514 MiB
Duration                    : 11mn 40s
Overall bit rate mode      : Variable
Overall bit rate            : 6 157 Kbps
Encoded date                : UTC 2014-09-02 01:17:53
Tagged date                : UTC 2014-09-02 01:17:53

Video
ID                          : 1
Format                      : AVC
Format/Info                : Advanced Video Codec
Format profile              : High@L4
Format settings, CABAC      : No
Format settings, ReFrames  : 3 frames
Codec ID                    : avc1
Codec ID/Info              : Advanced Video Coding
Duration                    : 11mn 40s
Bit rate mode              : Constant
Bit rate                    : 6 000 Kbps
Width                      : 1 920 pixels
Height                      : 1 080 pixels
Display aspect ratio        : 16:9
Frame rate mode            : Constant
Frame rate                  : 25.000 fps
Standard                    : PAL
Color space                : YUV
Chroma subsampling          : 4:2:0
Bit depth                  : 8 bits
Scan type                  : Progressive
Bits/(Pixel*Frame)          : 0.116
Stream size                : 500 MiB (97%)
Language                    : English
Encoded date                : UTC 2014-09-02 01:17:53
Tagged date                : UTC 2014-09-02 01:17:53
Color range                : Limited
Color primaries            : BT.709
Transfer characteristics    : BT.709
Matrix coefficients        : BT.709

Audio
ID                          : 2
Format                      : AAC
Format/Info                : Advanced Audio Codec
Format profile              : LC
Codec ID                    : 40
Duration                    : 11mn 40s
Bit rate mode              : Variable
Bit rate                    : 159 Kbps
Maximum bit rate            : 192 Kbps
Channel(s)                  : 2 channels
Channel positions          : Front: L R
Sampling rate              : 16.0 KHz
Frame rate                  : 15.625 fps (1024 spf)
Compression mode            : Lossy
Stream size                : 13.3 MiB (3%)
Language                    : English
Encoded date                : UTC 2014-09-02 01:17:53
Tagged date                : UTC 2014-09-02 01:17:53

Added2016-06-05 00:41:44
Size513.96 MB (538,921,208 bytes)
Views18
Num files1 files
Pictures