♺ AsiaBoy net - Dave & Adam - Thai - Bareback - Remastered

CategoryAsian
Download
You need to Login or Signup first.
DescriptionOriginal upload: 2014-06-06 |
Dave and Adam have decided to spend a few days away from home relaxing and enjoying each others company. They are led on the hotel bed covered only by gleaming white towels. When Dave feels Adam's slender body so close to his, he rolls over and kisses the smooth, toned body of his handsome youthful friend. Adam's towel falls open, and his stiff cock is released. When Dave sees the glorious piece of Asian meat he starts to suck it. He loves the taste cock and licks and sucks greedily, while Adam pushes his swollen shaft into Dave's eager moist mouth. A raw Asian bareback session is starting to hot up.

Dave and Adam engage in some righteous bareback sex, Thai style. VERY VERY hot extreme bareback sex, with a couple HANDSOME Thai guys.

The TOP, in particular, has an absolutely enormous LOVELY cock, which the bottom boy can't seem to get enough of, both orally and anally, getting his lover's seed planted, at the conclusion.

Studio: AsiaBoy.net
Original Title: Relaxing But Hard
Released: 2013
Duration: 33 min, 24 sec.

Includes an 80-HIGH-Quality Full Resolution Selected Pictures group, for your added enjoyment!!
------------------------Personal notes-------------------------------
This video sat around on my hard drive for well over a year... It was a very strange video, because (are you sitting down?) it was over SEVEN GIGABYTES in size!!!!

But this week, I stumbled upon it again, and decided to see what I could do to clean this up, make it presentable, and share it, since it's actually VERY HOT.

Sadly, they missed the actual cum shot of the bottom boy, but hey, such is life with amateur porn, plus this video makes up for that with the extended sucking and extreme fucking scenes, and our Top boy DOES end up planting his seed... in the end, so to speak. Alls well that ends well, even in porn...

-----------------------------Technical Notes------------------------------
Like I said above, this video file had been shared years ago, and was HUGE, primarily due to the improper codecs being used for both the audio and video compression.

Quality was marginal, being soft in focus, with poor lighting, and an overall red tinge to everything...

It took about 10 tries, with a number of different filter configurations to get satisfactory results, but the end result was pretty amazing.

Take a look at the "Before and After" photos, and see if you agree.

Note that although the video specs say 720w x 480h, the DAR (Display Aspect Ratio) is set to 16:9, so when watching it, your video player will switch to 854w x 480 to comply with the 16:9 ratio setting.

Ending filter settings (VirtualDub) were:  Red -12% toward Cyan, Blue +3.2% away from Yellow, Hue -3 degrees, Intensity at 114%, Brightness up 5.9%, Contrast up 109.6%, and Sharpening up a whopping 40 (64 Max!)

Video Compression is utilizing the two-step xvid codec, 1st pass mapping movement, 2nd pass utilizing a variable bit rate for consistent appearance to the eye, while achieving the smallest size. Overall video bit rate was set to 3017 kbps, to achive a Bits/(Pixel*Frame) : 0.291 . Any value greater than 0.2 is considered BEST QUALITY, and various quality numbers exceeding 0.2 are generally considered to be unable to humanly ascertain any visual differences.

Audio Compression is LAME3.98.4 MP3, for best audio quality, at the smallest size.

----------------------Detailed Technical Specs--------------------------------
Complete name : Asia Boy - Dave & Adam - Remastered.avi
Format : AVI
Format/Info : Audio Video Interleave
File size : 754 MiB
Duration : 33mn 24s
Overall bit rate : 3 157 Kbps
Writing library : VirtualDub build 32839/release

[Video] ID : 0
Format : MPEG-4 Visual
Format profile : Advanced Simple@L5
Format settings, BVOP : 2
Format settings, QPel : No
Format settings, GMC : No warppoints
Format settings, Matrix : Default (MPEG)
Muxing mode : Packed bitstream
Codec ID : XVID
Codec ID/Hint : XviD
Duration : 33mn 24s
Bit rate : 3 017 Kbps
Width : 720 pixels
Height : 480 pixels
Display aspect ratio : 16:9
Frame rate : 29.970 fps
Standard : NTSC
Color space : YUV
Chroma subsampling : 4:2:0
Bit depth : 8 bits
Scan type : Progressive
Compression mode : Lossy
Bits/(Pixel*Frame) : 0.291
Stream size : 721 MiB (96%)
Writing library : XviD 64

[Audio] ID : 1
Format : MPEG Audio
Format version : Version 1
Format profile : Layer 3
Mode : Joint stereo
Mode extension : MS Stereo
Codec ID : 55
Codec ID/Hint : MP3
Duration : 33mn 24s
Bit rate mode : Constant
Bit rate : 128 Kbps
Channel count : 2 channels
Sampling rate : 48.0 KHz
Compression mode : Lossy
Stream size : 30.6 MiB (4%)
Alignment : Split accross interleaves
Interleave, duration : 33 ms (1.00 video frame)
Interleave, preload duration : 500 ms
Writing library : LAME3.98.4

Added2016-09-01 23:47:43
Size769.47 MB (806,847,297 bytes)
Views1270
Num files86 files
Pictures