[Magma] Slaves Training Portrait in Hell

CategoryBDSM
Download
You need to Login or Signup first.
Description  Format : MPEG-4
      Codec ID : M4V
      File size : 1.96 GiB
      Duration : 1h 52mn
      Overall bit rate mode : Variable
      Overall bit rate : 2 478 Kbps
      Encoded date : UTC 2013-07-31 01:38:00
      Tagged date : UTC 2013-07-31 01:38:00
  Video #1
      ID : 1
      Format : AVC
      Format/Info : Advanced Video Codec
      Format profile : High@L3.1
      Format settings, CABAC : Yes
      Format settings, ReFrames : 4 frames
      Frame mode : Frame doubling
      Codec ID : avc1
      Codec ID/Info : Advanced Video Coding
      Duration : 1h 52mn
      Bit rate mode : Variable
      Bit rate : 2 363 Kbps
      Maximum bit rate : 15.0 Mbps
      Width : 1 280 pixels
      Height : 720 pixels
      Display aspect ratio : 16:9
      Frame rate mode : Constant
      Frame rate : 29.970 fps
      Color space : YUV
      Chroma subsampling : 4:2:0
      Bit depth : 8 bits
      Scan type : Progressive
      Bits/(Pixel*Frame) : 0.086
      Stream size : 1.86 GiB (95%)
      Writing library : x264 core 133 r2334kMod a3ac64b
      Encoding settings : cabac=1 / ref=4 / deblock=1:-1:-1 / analyse=0x3:0x133 / me=umh / subme=10 / psy=1 / fade_compensate=0.10 / psy_rd=1.00:0.15 / mixed_ref=1 / me_range=24 / chroma_me=1 / trellis=2 / 8x8dct=1 / cqm=0 / deadzone=21,11 / fast_pskip=1 / chroma_qp_offset=-3 / threads=12 / lookahead_threads=1 / sliced_threads=0 / slices=4 / nr=16 / decimate=1 / interlaced=0 / bluray_compat=1 / constrained_intra=0 / bframes=3 / b_pyramid=0 / b_adapt=2 / b_bias=0 / direct=3 / weightb=0 / open_gop=0 / weightp=0 / keyint=60 / keyint_min=1 / scenecut=40 / intra_refresh=0 / rc_lookahead=60 / rc=2pass / mbtree=1 / bitrate=2363 / ratetol=1.0 / qcomp=0.60 / qpmin=0 / qpmax=69 / qpstep=4 / cplxblur=20.0 / qblur=0.5 / vbv_maxrate=15000 / vbv_bufsize=15000 / nal_hrd=vbr / ip_ratio=1.40 / aq=1:1.00
      Language : Japanese
      Encoded date : UTC 2013-07-31 01:38:00
      Tagged date : UTC 2013-07-31 01:38:32
      Color primaries : BT.709
      Transfer characteristics : BT.709
      Matrix coefficients : BT.709
      Color range : Limited
  Audio #2
      ID : 2
      Format : AAC
      Format/Info : Advanced Audio Codec
      Format profile : LC
      Codec ID : 40
      Duration : 1h 52mn
      Bit rate mode : Variable
      Bit rate : 111 Kbps
      Maximum bit rate : 138 Kbps
      Channel(s) : 2 channels
      Channel positions : Front: L R
      Sampling rate : 48.0 KHz
      Compression mode : Lossy
      Stream size : 89.7 MiB (4%)
      Language : Japanese
      Encoded date : UTC 2013-07-31 01:38:30
      Tagged date : UTC 2013-07-31 01:38:32
Added2015-09-04 12:16:52
Size1.96 GB (2,099,206,708 bytes)
Views18
Num files1 files
Pictures