Taken down by DMCA request

Falcon Studios - The Other Side of Aspen IV - The Rescue (1995)

CategoryVintage
Download
You need to Login or Signup first.
Description"Celebrating Falcon Studio's 100th movie release, The Other Side Of Aspen IV is the "latest sequel" to the original 1983 classic, which starred the late Casey Donovan. This time around hunky ski instructor Johnny Hanson loses his boyfriend (Chad Knight) in the deep snows of Aspen. He does everything he can to find him, but distractions come thick and fast.

- tigon"

Cast: Andrew Cole, Bryce Colby, Carl Erik, Chad Knight, Cliff Parker, Cort Stevens, Daryl Brock, Eric Stone, Jackson Phillips, Jake Andrews, Jeff Michaels, John Ferage, Johnny Hanson, Ken Ryker, Kevin Dean, Max Grand, Steve Alden, Steve Marks, Tom Steele, Trent Reed, Wayne Montgomery

Runtime: 1:27:32

Tags: group sex, orgy, oral, blowjob, deepthroat, deep throat, anal, double penetration, rimming, tongue fucking, condom, dildo, dildos, toy, toys, ass stuffing, fisting, vintage

Codec Information:

General
Format                                  : AVI
Format/Info                              : Audio Video Interleave
Format profile                          : OpenDML
File size                                : 1.55 GiB
Duration                                : 1h 27mn
Overall bit rate mode                    : Variable
Overall bit rate                        : 2 531 Kbps
Writing application                      : MEncoder Sherpya-SVN-r30075-4.2.5
Writing library                          : MPlayer

Video
ID                                      : 0
Format                                  : MPEG-4 Visual
Format profile                          : Simple@L3
Format settings, BVOP                    : No
Format settings, QPel                    : No
Format settings, GMC                    : No warppoints
Format settings, Matrix                  : Default (H.263)
Codec ID                                : XVID
Codec ID/Hint                            : XviD
Duration                                : 1h 27mn
Bit rate                                : 2 396 Kbps
Width                                    : 720 pixels
Height                                  : 540 pixels
Display aspect ratio                    : 4:3
Frame rate                              : 29.970 fps
Color space                              : YUV
Chroma subsampling                      : 4:2:0
Bit depth                                : 8 bits
Scan type                                : Progressive
Compression mode                        : Lossy
Bits/(Pixel*Frame)                      : 0.206
Stream size                              : 1.46 GiB (95%)
Writing library                          : XviD 1.2.1 (UTC 2008-12-04)

Audio
ID                                      : 1
Format                                  : MPEG Audio
Format version                          : Version 1
Format profile                          : Layer 3
Mode                                    : Joint stereo
Codec ID                                : 55
Codec ID/Hint                            : MP3
Duration                                : 1h 27mn
Bit rate mode                            : Variable
Bit rate                                : 120 Kbps
Channel count                            : 2 channels
Sampling rate                            : 48.0 KHz
Compression mode                        : Lossy
Stream size                              : 75.1 MiB (5%)
Alignment                                : Aligned on interleaves
Interleave, duration                    : 24 ms (0.72 video frame)
Interleave, preload duration            : 541 ms

Enjoy :)
Added2014-06-07 15:30:47
Size1.55 GB (1,661,713,212 bytes)
Views0
Num files1 files
Pictures