♺ BT - Benjamin Riley & Collin Stone - Remastered 720p

CategoryBareback
Download
You need to Login or Signup first.
DescriptionOriginal upload: 2013-10-13 |
Taking Step-Dads Bareback Dick 720p

Collin and his step-son Benjamin become a lot closer than expected in this intense scene!

The boy returns home after running away, in desperation, not really sure WHAT to expect, having confessed to his step-father that he was sexually attracted to him! But his step-father's been thinking a LOT about this, and worrying intensely, in his step-son's absence.

AND that included SO MUCH thinking about the possibilities of making love to him! (Who wouldn't, when the step son is that adorable perennially horny blond twink Benjamin Riley!)

Collin confronts Benjamin, and confesses... if Benjamin STILL wants to make love to him... he's ready and willing!

Soon that experienced dick is sliding between the boys lips, and easing into his smooth and tight little ass too as the tattooed bear stud gives him what he'd previously only fantasized and dreamt about!

-----------------ABOUT BENJAMIN RILEY---------------------
Southern boy Benjamin is so cute, and so sexy too. The blond boy describes himself as "gay-curious", occasionally thinking about lesbians when he's drunk. But he's all about the boys when he's with us, and there are a lot of boys who want to get that juicy dick in their ass. He loves to top, and has plenty of experience.

Title: Taking Step-Dads Bareback Dick
Released: October 11, 2013
Duration: 16 minutes
Resolution: 1280x720
Avg.bitrate: 5906 kb/s
Bits/(Pixel*Frame) : 0.209  > 0.2 is considered BEST possible quality, as is possible to assertain by eye.

-----------------------Personal / Technical Notes---------------------------
OMG! Second in a row, from the BC / BT studios, where the Chroma Hue was "off" and the talent was green (see the "Before and After picture"! Not that I mind, it's a fairly easy job to Color Correct this flaw, especially when shot by a single camera, with otherwise flawless production qualities. AND there's NO way it's a duplicate, when it's something I've created myself.

In this case, White Balance was achieved by adding 10% more blue, then the picture image corrected with 14% less chroma, and a 7 degree Hue shift away from green. ALSO added a moderate amount of sharpening, to keep these superb images crystal clear.

I think the results were stunning, and if you're into the fantasy of a sexual liason between a bear Step-Father and a slight / slim blond twink son... (or if you get off watching ANYTHING with Benjamin Riley in it, as do I) you'll enjoy this video.  Added to this fantasy is the oddity of having a bear porn model perform in a BT production!  See for yourself!!

Enjoy!
Pawpcorn
--------------------------Detailed Technical Info-----------------------------
[General] Complete name : BT - Benjamin Riley & Collin Stone - Color Corrected 720p.avi
Format : AVI
Format/Info : Audio Video Interleave
File size : 682 MiB
Duration : 16mn 9s
Overall bit rate : 5 906 Kbps
Movie name : BT-Benjamin-Collin.mp4
Writing application : XviD4PSP 6.0 / 53.6.0
Writing library : VirtualDub build 32839/release

[Video] ID : 0
Format : MPEG-4 Visual
Format profile : Advanced Simple@L5
Format settings, BVOP : 2
Format settings, QPel : No
Format settings, GMC : No warppoints
Format settings, Matrix : Default (MPEG)
Muxing mode : Packed bitstream
Codec ID : XVID
Codec ID/Hint : XviD
Duration : 16mn 9s
Bit rate : 5 767 Kbps
Width : 1 280 pixels
Height : 720 pixels
Display aspect ratio : 16:9
Frame rate : 29.970 fps
Color space : YUV
Chroma subsampling : 4:2:0
Bit depth : 8 bits
Scan type : Progressive
Compression mode : Lossy
Bits/(Pixel*Frame) : 0.209
Stream size : 666 MiB (98%)
Writing library : XviD 64

[Audio] ID : 1
Format : MPEG Audio
Format version : Version 1
Format profile : Layer 3
Mode : Joint stereo
Mode extension : MS Stereo
Codec ID : 55
Codec ID/Hint : MP3
Duration : 16mn 9s
Bit rate mode : Constant
Bit rate : 128 Kbps
Channel(s) : 2 channels
Sampling rate : 44.1 KHz
Compression mode : Lossy
Stream size : 14.8 MiB (2%)
Alignment : Split accross interleaves
Interleave, duration : 33 ms (1.00 video frame)
Interleave, preload duration : 500 ms

Added2015-04-06 15:00:49
Size710.34 MB (744,847,373 bytes)
Views24
Num files69 files
Pictures