Taken down by DMCA request

♺ Two man fucked young boy

CategoryDaddies / Sons
Download
You need to Login or Signup first.
DescriptionOriginal upload: 2014-03-28 |
General
      Complete name : Two man fucked young boy.wmv
      Format : Windows Media
      File size : 352 MiB
      Duration : 46mn 56s
      Overall bit rate mode : Constant
      Overall bit rate : 1 047 Kbps
      Maximum Overall bit rate : 1 054 Kbps
      Encoded date : UTC 2012-06-03 09:28:50.967
  Video #2
      ID : 2
      Format : VC-1
      Format profile : MP@ML
      Codec ID : WMV3
      Codec ID/Info : Windows Media Video 9
      Codec ID/Hint : WMV3
      Description of the codec : Windows Media Video 9
      Duration : 46mn 54s
      Bit rate mode : Constant
      Bit rate : 978 Kbps
      Width : 480 pixels
      Height : 360 pixels
      Display aspect ratio : 4:3
      Frame rate : 29.970 fps
      Resolution : 24 bits
      Scan type : Progressive
      Bits/(Pixel*Frame) : 0.189
      Stream size : 328 MiB (93%)
      Language : Russian
      NumberOfFrames : 84408
  Audio #1
      ID : 1
      Format : WMA2
      Format profile : L1
      Codec ID : 161
      Codec ID/Info : Windows Media Audio 2
      Description of the codec : Windows Media Audio 9.2 -  64 kbps, 44 kHz, stereo 1-pass CBR
      Duration : 46mn 56s
      Bit rate mode : Constant
      Bit rate : 64.0 Kbps
      Channel(s) : 2 channels
      Sampling rate : 44.1 KHz
      Resolution : 16 bits
      Stream size : 21.5 MiB (6%)
      Language : Russian
      NumberOfFrames : 7584
Added2016-07-22 04:35:06
Size351.72 MB (368,804,305 bytes)
Views381
Num files1 files
Pictures