Nice Latino Boy gets fucked by three friends

CategoryLatino
Download
You need to Login or Signup first.
DescriptionNice Latino Boy gets fucked by three friends. DP.

Format: AVI
Format/Info: Audio Video Interleave
File size: 343 MiB
Duration: 43mn 0s
Overall bit rate: 1 114 Kbps

Video
ID: 0
Format: MPEG-4 Visual
Format profile: Simple@L3
Format settings, BVOP: No
Format settings, QPel: No
Format settings, GMC: No warppoints
Format settings, Matrix: Default (H.263)
Codec ID: XVID
Codec ID/Hint: XviD
Duration: 43mn 0s
Bit rate: 983 Kbps
Width: 320 pixels
Height: 240 pixels
Display aspect ratio: 4:3
Frame rate: 14.978 fps
Color space: YUV
Chroma subsampling: 4:2:0
Bit depth: 8 bits
Scan type: Progressive
Compression mode: Lossy
Bits/(Pixel*Frame): 0.854
Stream size: 302 MiB (88%)
Title: Tonio, Leo&Alex 01.avi Vídeo #1
Writing library: ZJMedia MPEG Encoder

Audio
ID: 1
Format: MPEG Audio
Format version: Version 1
Format profile: Layer 3
Mode: Joint stereo
Mode extension: MS Stereo
Codec ID: 55
Codec ID/Hint: MP3
Duration: 42mn 58s
Bit rate mode: Constant
Bit rate: 128 Kbps
Channel(s): 2 channels
Sampling rate: 44.1 KHz
Compression mode: Lossy
Stream size: 39.3 MiB (11%)
Alignment: Split accross interleaves
Interleave, duration: 256 ms (3.84 video frames)
Title: Tonio, Leo&Alex 01.avi Áudio #1


Added2015-12-06 16:31:26
Size342.70 MB (359,350,784 bytes)
Views3
Num files1 files
Pictures