Two Hot Thai Boys Suck & Fuck Bareback - Remastered & Resized

CategoryAsian
Download
You need to Login or Signup first.
DescriptionOriginally a BPD (Birlynn Productions & Distribution Video), Re-released by the "AsianBoyNation.com" Website...

I found this video floating on the Internet; it had been incorrectly resized to be 1280 x 720, which is a 16:9 resolution; the original would have been 640 x 480, a 4:3 resolution.

I left the vertical resolution alone (in order to minimize the reprocessing data-loss), and resized the horizontal resolution to restore the original ratio perspective.

I added some chroma and corrected the chroma phase, and added significant sharpening, while correcting the ratio perspective (see the Before&After picture), resulting in a perhaps-watchable version of this classic (approximate 2006) BPD release. I'm NOT going to say this is anywhere near HQ, but the boys ARE beautiful, and it IS bareback, and was one of the better produced BPD videos, in its era, so I share it with you.

Bonus Points Appreciated!!  Enjoy!
==============Technical Details=================
[General] Complete name : Two Hot Thai Boys Suck and Fuck Bareback.avi
Format : AVI
Format/Info : Audio Video Interleave
File size : 974 MiB
Duration : 24mn 9s
Overall bit rate : 5 633 Kbps
Writing application : XviD4PSP 6.0 / 53.6.0
Writing library : VirtualDub build 32839/release

[Video] ID : 0
Format : MPEG-4 Visual
Format profile : Advanced Simple@L5
Format settings, BVOP : 2
Format settings, QPel : No
Format settings, GMC : No warppoints
Format settings, Matrix : Default (MPEG)
Muxing mode : Packed bitstream
Codec ID : XVID
Codec ID/Hint : XviD
Duration : 24mn 9s
Bit rate : 5 494 Kbps
Width : 960 pixels
Height : 720 pixels
Display aspect ratio : 4:3
Frame rate : 29.970 fps
Color space : YUV
Chroma subsampling : 4:2:0
Bit depth : 8 bits
Scan type : Progressive
Compression mode : Lossy
Bits/(Pixel*Frame) : 0.265
Stream size : 949 MiB (98%)
Writing library : XviD 64

[Audio] ID : 1
Format : MPEG Audio
Format version : Version 1
Format profile : Layer 3
Mode : Joint stereo
Mode extension : MS Stereo
Codec ID : 55
Codec ID/Hint : MP3
Duration : 24mn 9s
Bit rate mode : Constant
Bit rate : 128 Kbps
Channel count : 2 channels
Sampling rate : 48.0 KHz
Compression mode : Lossy
Stream size : 22.1 MiB (2%)
Alignment : Split accross interleaves
Interleave, duration : 33 ms (1.00 video frame)
Interleave, preload duration : 500 ms
Writing library : LAME3.98.4

Added2014-06-23 16:12:51
Size973.50 MB (1,020,788,818 bytes)
Views15
Num files1 files
Pictures