Taken down by DMCA request

B re Tw nks - Daniel Gets A Cummy Hole! {Remastered} 1080p

CategoryBareback
Download
You need to Login or Signup first.
DescriptionDaniel really needs that hard long dick in his hot little hole, and Jacobey is more than willing to give it to him! The boys take each others cocks out of their sexy jockstraps and get sucking, but when Daniel shows off his tight hole Jacobey wants to ease in straight away. He has a toy to loosen him up, but soon it's the real deal; balls-deep and fucking him in various positions! With Daniel having his load fucked out of him, Jacobey carries on slamming that hole and pulls out to make a thick hot mess, which he fucks right back into that sweet used pucker!

Remastered, setting up more natural beautiful body skin tones, by correcting white balance, cranking hue 7 degrees to lose the greenish tinge to Jocobey's body... and reducing overall chroma level 3%

Uncompressed to 209 GB, Color-Corrected, DOUBLE-passed through MP4 muxer for optimum file size / bitstream rate, Audio stripped off, converted to 48K LAME3.98r MP3, and remuxed into the .MP4 video.

Title: Daniel Gets A Cummy Hole!
Studio: B_reTw_nks / B_yCr_sh
Released: September 26, 2014
Duration: 19 Minutes
Models: Jacobey London, Daniel Ross

Tags: ~Anal, ~Masturbation, ~Twinks, ~Kissing, ~Bareback, ~Toys, ~Deep Throat, ~Brown Hair, ~Fucking, ~Trimmed, ~Cut, ~Uncut, ~Short Hair, ~Cum In Ass, ~Ass Play, ~Cum Getting Fucked, ~Cum Jerking Off, ~DoggyStyle, ~Missionary, ~On The Sofa, ~Passionate Fuck, ~Riding, ~Huge Load, ~British

Multimedia Analysis of: Daniel Gets A Cummy Hole!.mp4
Format : MPEG-4
Format profile : Base Media
Codec ID : isom
File size : 1.48 GiB
Duration : 19mn 9s
Overall bit rate : 11.0 Mbps
Encoded date : UTC 2016-09-30 07:46:14
Tagged date : UTC 2016-09-30 07:46:14

[Video] ID : 1
Format : AVC
Format/Info : Advanced Video Codec
Format profile : High@L5
Format settings, CABAC : Yes
Format settings, ReFrames : 5 frames
Codec ID : avc1
Codec ID/Info : Advanced Video Coding
Duration : 19mn 9s
Source duration : 2s 659ms
Bit rate : 10.9 Mbps
Maximum bit rate : 30.4 Mbps
Width : 1 920 pixels
Height : 1 080 pixels
Display aspect ratio : 16:9
Frame rate mode : Constant
Frame rate : 29.970 fps
Color space : YUV
Chroma subsampling : 4:2:0
Bit depth : 8 bits
Scan type : Progressive
Bits/(Pixel*Frame) : 0.175
Stream size : 1.46 GiB (99%)
Source stream size : 1.46 GiB (99%)
Writing library : x264 core 146 r2538bm 121396c
Encoding settings : cabac=1 / ref=5 / deblock=1:0:0 / analyse=0x3:0x113 / me=umh / subme=8 / psy=1 / psy_rd=1.00:0.00 / mixed_ref=1 / me_range=16 / chroma_me=1 / trellis=1 / 8x8dct=1 / cqm=0 / deadzone=21,11 / fast_pskip=1 / chroma_qp_offset=-2 / threads=3 / lookahead_threads=1 / sliced_threads=0 / nr=0 / decimate=1 / interlaced=0 / bluray_compat=0 / constrained_intra=0 / bframes=3 / b_pyramid=2 / b_adapt=2 / b_bias=0 / direct=3 / weightb=1 / open_gop=0 / weightp=2 / keyint=250 / keyint_min=25 / scenecut=40 / intra_refresh=0 / rc_lookahead=50 / rc=2pass / mbtree=1 / bitrate=10885 / ratetol=1.0 / qcomp=0.60 / qpmin=0 / qpmax=69 / qpstep=4 / cplxblur=20.0 / qblur=0.5 / ip_ratio=1.40 / aq=1:1.00
Encoded date : UTC 2016-09-29 21:46:00
Tagged date : UTC 2016-09-30 07:46:51
mdhd_Duration : 1149415

[Audio] ID : 2
Format : MPEG Audio
Format version : Version 1
Format profile : Layer 3
Codec ID : .mp3
Duration : 19mn 9s
Bit rate mode : Constant
Bit rate : 128 Kbps
Maximum bit rate : 132 Kbps
Channel(s) : 2 channels
Sampling rate : 48.0 KHz
Compression mode : Lossy
Stream size : 17.5 MiB (1%)
Writing library : LAME3.98r
Encoding settings : -m s -V 4 -q 3 -lowpass 17 -b 128
Language : English
Encoded date : UTC 2016-09-30 07:46:50
Tagged date : UTC 2016-09-30 07:46:51
Added2016-09-30 15:14:43
Size1.48 GB (1,584,658,288 bytes)
Views95
Num files9 files
Pictures