Arabian Soup

CategoryFetish
Download
You need to Login or Signup first.
DescriptionGeneral
Complete name              Arabian Soup.mp4
Format                        : MPEG-4
Format profile                : Base Media
Codec ID                      : isom (isom/iso2/avc1/mp41)
File size                      : 166 MiB
Duration                      : 40mn 26s
Overall bit rate mode          : Variable
Overall bit rate              : 575 Kbps
Writing application            : Lavf54.59.106

Video
ID                            : 1
Format                        : AVC
Format/Info                    : Advanced Video Codec
Format profile                : Baseline@L3
Format settings, CABAC        : No
Format settings, ReFrames      : 3 frames
Codec ID                      : avc1
Codec ID/Info                  : Advanced Video Coding
Duration                      : 40mn 26s
Bit rate                      : 440 Kbps
Width                          : 640 pixels
Height                        : 352 pixels
Display aspect ratio          : 16:9
Original display aspect ratio  : 16:9
Frame rate mode                : Constant
Frame rate                    : 25.000 fps
Color space                    : YUV
Chroma subsampling            : 4:2:0
Bit depth                      : 8 bits
Scan type                      : Progressive
Bits/(Pixel*Frame)            : 0.078
Stream size                    : 128 MiB (77%)
Writing library                : x264 core 129
Encoding settings              : cabac=0 / ref=3 / deblock=1:0:0 / analyse=0x1:0x111 / me=hex / subme=7 / psy=1 / psy_rd=1.00:0.00 / mixed_ref=1 / me_range=16 / chroma_me=1 / trellis=1 / 8x8dct=0 / cqm=0 / deadzone=21,11 / fast_pskip=1 / chroma_qp_offset=-2 / threads=24 / lookahead_threads=4 / sliced_threads=0 / nr=0 / decimate=1 / interlaced=0 / bluray_compat=0 / constrained_intra=0 / bframes=0 / weightp=0 / keyint=250 / keyint_min=25 / scenecut=40 / intra_refresh=0 / rc_lookahead=40 / rc=abr / mbtree=1 / bitrate=440 / ratetol=1.0 / qcomp=0.60 / qpmin=0 / qpmax=69 / qpstep=4 / vbv_maxrate=10000 / vbv_bufsize=10000 / nal_hrd=none / ip_ratio=1.40 / aq=1:1.00

Audio
ID                            : 2
Format                        : AAC
Format/Info                    : Advanced Audio Codec
Format profile                : LC
Codec ID                      : 40
Duration                      : 40mn 26s
Bit rate mode                  : Variable
Bit rate                      : 128 Kbps
Maximum bit rate              : 10 000 Kbps
Channel(s)                    : 2 channels
Channel positions              : Front: L R
Sampling rate                  : 44.1 KHz
Frame rate                    : 43.066 fps (1024 spf)
Compression mode              : Lossy
Stream size                    : 37.0 MiB (22%)
Default                        : Yes
Alternate group                : 1


Added2016-04-14 04:34:43
Size166.40 MB (174,483,703 bytes)
Views13
Num files1 files
Pictures