Taken down by DMCA request

[IconMale] Adam Russo & Casey Tanner

CategoryDaddies / Sons
Download
You need to Login or Signup first.
DescriptionComplete name                            :[IconMale] Adam Russo & Casey Tanner_720p.mp4
Format                                  : MPEG-4
Format profile                          : Base Media
Codec ID                                : isom
File size                                : 735 MiB
Duration                                : 20mn 37s
Overall bit rate mode                    : Variable
Overall bit rate                        : 4 979 Kbps


Video
ID                                      : 1
Format                                  : AVC
Format/Info                              : Advanced Video Codec
Format profile                          : High@L3.1
Format settings, CABAC                  : Yes
Format settings, ReFrames                : 4 frames
Codec ID                                : avc1
Codec ID/Info                            : Advanced Video Coding
Duration                                : 20mn 37s
Bit rate                                : 4 800 Kbps
Width                                    : 1 280 pixels
Height                                  : 720 pixels
Display aspect ratio                    : 16:9
Frame rate mode                          : Constant
Frame rate                              : 29.970 fps
Color space                              : YUV
Chroma subsampling                      : 4:2:0
Bit depth                                : 8 bits
Scan type                                : Progressive
Bits/(Pixel*Frame)                      : 0.174
Stream size                              : 711 MiB (97%)
Writing library                          : x264 core 107


Audio
ID                                      : 2
Format                                  : AAC
Format/Info                              : Advanced Audio Codec
Format profile                          : LC
Codec ID                                : 40
Duration                                : 20mn 37s
Bit rate mode                            : Variable
Bit rate                                : 152 Kbps
Channel(s)                              : 2 channels
Channel positions                        : Front: L R
Sampling rate                            : 44.1 KHz
Compression mode                        : Lossy
Stream size                              : 22.4 MiB (3%)


Added2015-01-16 09:43:34
Size734.65 MB (770,331,781 bytes)
Views1
Num files1 files
Pictures