♺ A-RGF0610 hidden cam

CategoryVoyeur
Download
You need to Login or Signup first.
DescriptionOriginal upload: 2011-06-24 |
General
      Complete name : A-RGF0610.avi
      Format : AVI
      Format/Info : Audio Video Interleave
      File size : 200 MiB
      Duration : 19mn 19s
      Overall bit rate : 1 446 Kbps
  Video #0
      ID : 0
      Format : MPEG-4 Visual
      Format profile : AdvancedSimple@L5
      Format settings, BVOP : No
      Format settings, QPel : No
      Format settings, GMC : No warppoints
      Format settings, Matrix : Default (H.263)
      Codec ID : XVID
      Codec ID/Hint : XviD
      Duration : 19mn 19s
      Bit rate : 1 342 Kbps
      Width : 640 pixels
      Height : 480 pixels
      Display aspect ratio : 4:3
      Frame rate : 29.970 fps
      Resolution : 24 bits
      Colorimetry : 4:2:0
      Scan type : Progressive
      Bits/(Pixel*Frame) : 0.146
      Stream size : 185 MiB (93%)
      Writing library : XviD 1.2.1 (UTC 2008-12-04)
  Audio #1
      ID : 1
      Format : MPEG Audio
      Format version : Version 1
      Format profile : Layer 3
      Codec ID : 55
      Codec ID/Hint : MP3
      Duration : 19mn 19s
      Bit rate mode : Constant
      Bit rate : 96.0 Kbps
      Channel(s) : 2 channels
      Sampling rate : 44.1 KHz
      Resolution : 16 bits
      Stream size : 13.3 MiB (7%)
      Alignment : Split accross interleaves
      Interleave, duration : 67 ms (2.00 video frames)
      Writing library : LAMELAME_MAJOR_VERSI
Added2015-07-11 16:08:06
Size199.96 MB (209,669,968 bytes)
Views4641
Num files1 files
Pictures