♺ [SSV653]- The First time of Professor Mara

CategoryChubbies
Download
You need to Login or Signup first.
DescriptionOriginal upload: 2012-10-19 |
Date 2012/08/14
This is a new Samson film. We have new favorite Man. He is a Professor
And this is a first time of him!!!
Professor Mara infomation: Age (62) Weight (76kg) tall(163cm)

General
Complete name                            : [SSV653] - The First time of Professor Mara.wmv
Format                                  : Windows Media
File size                                : 804 MiB
Duration                                : 52mn 37s
Overall bit rate mode                    : Constant
Overall bit rate                        : 2 138 Kbps
Maximum Overall bit rate                : 2 148 Kbps
Encoded date                            : UTC 2012-07-03 02:43:20.125

Video
ID                                      : 1
Format                                  : VC-1
Format profile                          : MP@HL
Codec ID                                : WMV3
Codec ID/Info                            : Windows Media Video 9
Codec ID/Hint                            : WMV3
Description of the codec                : Windows Media Video 9 - Professional
Duration                                : 52mn 37s
Bit rate mode                            : Constant
Bit rate                                : 2 000 Kbps
Width                                    : 960 pixels
Height                                  : 540 pixels
Display aspect ratio                    : 16:9
Frame rate                              : 29.970 fps
Bit depth                                : 8 bits
Scan type                                : Progressive
Compression mode                        : Lossy
Bits/(Pixel*Frame)                      : 0.129
Stream size                              : 753 MiB (94%)
Language                                : Japanese

Audio
ID                                      : 2
Format                                  : WMA
Format version                          : Version 2
Codec ID                                : 161
Codec ID/Info                            : Windows Media Audio
Description of the codec                : Windows Media Audio 9.2 - 128 kbps, 48 kHz, stereo 1-pass CBR
Duration                                : 52mn 37s
Bit rate mode                            : Constant
Bit rate                                : 128 Kbps
Channel(s)                              : 2 channels
Sampling rate                            : 48.0 KHz
Bit depth                                : 16 bits
Stream size                              : 48.2 MiB (6%)
Language                                : Japanese



Added2015-07-29 20:47:05
Size804.49 MB (843,568,357 bytes)
Views629
Num files1 files
Pictures