♺ OTB - Reinel, Omar, Isaias  ~fetish

You need to Login or Signup first.
DescriptionOriginal upload: 2010-04-07 |

3 of OTB's Latino twinks, unleashed in a non-stop frenzy of 3-way sex, including sandwich fucking, double penetration, seed fucking, cock sucking, cum lapping and snowballing, like there's no tomorrow.
Title: Reinel, Omar and Isaias
Studio: OTB
Label: XXXTreme Twinks (formerly www.xxxtremetwinks.com)
Year Released: unknown (was originally a scene on "XXXtreme Twinks XII" DVD, then offered as an 8-part download; no longer available)
Duration: 39 minutes
Personal Note: Warning: It may take you MANY viewings of this video, to make it all the way to the end, considering these boys cum, fuck, cum, suck, and cum again and again and again!!! I gave up counting after the first dozen orgasms. Note that I said "orgasm", not "cum shot".

The term "cum shot" doesn't begin to describe these orgasms! These are more like the ultimate cock, cum, and boy pussy worship sessions. Each orgasm is savored, orally in most cases, for a LONG time, then shared, in cum-soaked snowball kissing, unlike any video I've ever seen.

My guess is that this shoot really covered MANY days of shooting... otherwise these scenes would be a physical impossibility.

I'm including model photos and information on OTB models Omar and Isaias, but model Reinel is no longer being listed on OTB's website. I DID find one lone solitary reference (and picture) of him, on a Google search, on a website in Spanish, referencing a Video called Extreme Twinks XII, and showing this threesome scene as one of 5 scenes, in the movie.

Currently, OTB's web site only lists 3 DVDs in their XXXtreme Twinks series... "Dirty Piss Boys", "Dirty Rough Boys" and "Dirty Spank Boyz", but no mention of a series of 12 (or more!) DVDs. AND, NO xxxtremetwinks downloads are offered. Curious!

I'm really in the dark about the history, and apparent demise of OTB's XXXTremeTwinks.com Internet download site. Can anyone fill in the blanks here?

Myself, I just this week became aware that xxxtremetwinks was even associated with OTB, so I feel quite stupid (and disappointed), not having ever watched any of these series of HOT!!! videos, prior to now. Damn!

No color correction was performed on this video, I just sharpened the video a little bit. I converted it from .asf format, editing out the opening and closing titles for each of the 8 individual original download segments, except for the first and last.

And, as always, if you appreciate the work I put into creating this video, I could really use any gift of bonus points you can afford to give.

I'm usually downloading DVDs from this great torrent site, to create the highest quality and resolution videos to share with you, converted directly from the DVD data files. But this, by nature, tends to chip away, severely, at my upload/download ratio, as you can imagine.

This .AVI video was created by converting then uncompressing the original .asf file, then using the Xvid codec in 2-pass mode, to detect motion, thus utilizing Variable Bit Rates for the most efficient Video Compression, achieving a uniform look of high quality, plus MP3 audio, resulting in a reasonable file size. This video has a Gspot Qf (Quality Factor) of .3 for near-DVD quality.

Of note is that there is NO DAR (Digital Aspect Ratio) flag setting, like the usual 4:3 or 16:9. This video's pixel is actually SQUARE, and since this video is 720 x 480, it means this video's screen ratio is actually 3:2  ; a little unusual, but it looks great, on the computer screen, and the TV.
Multimedia Analysis of:  [OTB - XXXTreme Twinks] - Reinel Omar Isaias.avi

Complete name : [OTB - XXXTreme Twinks] - Reinel Omar Isaias.avi
Format : AVI
Format/Info : Audio Video Interleave
File size : 749 MiB
Duration : 38mn 42s
Overall bit rate : 2 705 Kbps
Director : created.with.SUPER(C).v2010.bld.37
Writing application : VirtualDubMod (build 2542/release)
Writing library : VirtualDubMod build 2542/release

Video  ID : 0
Format : MPEG-4 Visual
Format profile : Advanced Simple@L5
Format settings, BVOP : Yes
Format settings, QPel : No
Format settings, GMC : No warppoints
Format settings, Matrix : Default (MPEG)
Muxing mode : Packed bitstream
Codec ID : XVID
Codec ID/Hint : XviD
Duration : 38mn 42s
Bit rate : 2 600 Kbps
Width : 720 pixels
Height : 480 pixels
Display aspect ratio : 1.500
Frame rate : 25.000 fps
Standard : NTSC
Resolution : 8 bits
Colorimetry : 4:2:0
Scan type : Progressive
Bits/(Pixel*Frame) : 0.301
Stream size : 720 MiB (96%)
Writing library : XviD 1.2.1 (UTC 2008-12-04)

Audio  ID : 1
Format : MPEG Audio
Format version : Version 1
Format profile : Layer 3
Codec ID : 55
Codec ID/Hint : MP3
Duration : 38mn 41s
Bit rate mode : Constant
Bit rate : 96.0 Kbps
Channel(s) : 2 channels
Sampling rate : 44.1 KHz
Stream size : 26.6 MiB (4%)
Alignment : Split accross interleaves
Interleave, duration : 40 ms (1.00 video frame)
Interleave, preload duration : 500 ms
Writing library : LAME3.97

Added2015-03-17 21:43:05
Size748.88 MB (785,256,448 bytes)
Num files1 files