♺ Homemade 2 teen boys on cam

CategoryHomemade
Download
You need to Login or Signup first.
DescriptionOriginal upload: 2014-03-25 |
General
      Complete name : 15.mp4
      Format : MPEG-4
      Format profile : Base Media
      Codec ID : isom
      File size : 13.1 MiB
      Duration : 10mn 5s
      Overall bit rate : 182 Kbps
      Encoded date : UTC 1970-01-01 00:00:00
      Tagged date : UTC 1970-01-01 00:00:00
      Writing application : Lavf52.31.0
  Video #1
      ID : 1
      Format : AVC
      Format/Info : Advanced Video Codec
      Format profile : High@L1.3
      Format settings, CABAC : Yes
      Format settings, ReFrames : 4 frames
      Codec ID : avc1
      Codec ID/Info : Advanced Video Coding
      Duration : 10mn 5s
      Bit rate mode : Variable
      Bit rate : 114 Kbps
      Width : 320 pixels
      Height : 240 pixels
      Display aspect ratio : 4:3
      Frame rate mode : Variable
      Frame rate : 15.000 fps
      Minimum frame rate : 10.000 fps
      Maximum frame rate : 20.000 fps
      Original frame rate : 25.000 fps
      Resolution : 24 bits
      Colorimetry : 4:2:0
      Scan type : Progressive
      Bits/(Pixel*Frame) : 0.099
      Stream size : 8.24 MiB (63%)
      Writing library : x264 core 68
      Encoding settings : cabac=1 / ref=4 / deblock=1:0:0 / analyse=0x3:0x113 / me=umh / subme=8 / psy_rd=1.0:0.0 / mixed_ref=1 / me_range=16 / chroma_me=1 / trellis=1 / 8x8dct=1 / cqm=0 / deadzone=21,11 / chroma_qp_offset=-2 / threads=12 / nr=0 / decimate=1 / mbaff=0 / bframes=16 / b_pyramid=0 / b_adapt=2 / b_bias=0 / direct=3 / wpredb=1 / keyint=250 / keyint_min=25 / scenecut=40 / rc=crf / crf=25.0 / qcomp=0.60 / qpmin=10 / qpmax=51 / qpstep=4 / ip_ratio=1.41 / pb_ratio=1.25 / aq=1:1.00
      Encoded date : UTC 1970-01-01 00:00:00
      Tagged date : UTC 1970-01-01 00:00:00
  Audio #2
      ID : 2
      Format : AAC
      Format/Info : Advanced Audio Codec
      Format version : Version 4
      Format profile : LC
      Format settings, SBR : Yes
      Format settings, PS : No
      Codec ID : 40
      Duration : 10mn 5s
      Bit rate mode : Variable
      Bit rate : 64.0 Kbps
      Channel(s) : 2 channels
      Channel positions : L R
      Sampling rate : 44.1 KHz
      Resolution : 16 bits
      Stream size : 4.62 MiB (35%)
      Encoded date : UTC 1970-01-01 00:00:00
      Tagged date : UTC 1970-01-01 00:00:00
Added2016-06-24 17:21:06
Size13.12 MB (13,760,882 bytes)
Views333
Num files1 files
Pictures