♺ 2 Webcam Gay Video

CategoryHomemade
Download
You need to Login or Signup first.
DescriptionOriginal upload: 2014-03-20 |
General
      Complete name : 2 Webcam Gay Video.avi
      Format : AVI
      Format/Info : Audio Video Interleave
      File size : 148 MiB
      Duration : 24mn 20s
      Overall bit rate : 849 Kbps
      Writing application : MEncoder SVN-r30881(20100311-gcc4.3.3)
      Writing library : MPlayer
  Video #0
      ID : 0
      Format : MPEG-4 Visual
      Format profile : AdvancedSimple@L5
      Format settings, BVOP : Yes
      Format settings, QPel : No
      Format settings, GMC : No warppoints
      Format settings, Matrix : Default (H.263)
      Codec ID : XVID
      Codec ID/Hint : XviD
      Duration : 24mn 20s
      Bit rate : 709 Kbps
      Width : 640 pixels
      Height : 480 pixels
      Display aspect ratio : 4:3
      Frame rate : 25.000 fps
      Resolution : 24 bits
      Colorimetry : 4:2:0
      Scan type : Progressive
      Bits/(Pixel*Frame) : 0.092
      Stream size : 123 MiB (83%)
      Writing library : XviD 1.2.1 (UTC 2008-12-04)
  Audio #1
      ID : 1
      Format : MPEG Audio
      Format version : Version 1
      Format profile : Layer 3
      Codec ID : 55
      Codec ID/Hint : MP3
      Duration : 24mn 20s
      Bit rate mode : Constant
      Bit rate : 128 Kbps
      Channel(s) : 2 channels
      Sampling rate : 44.1 KHz
      Resolution : 16 bits
      Video delay : 40ms
      Stream size : 22.3 MiB (15%)
      Alignment : Aligned on interleaves
      Interleave, duration : 26 ms (0.65 video frame)
      Interleave, preload duration : 522 ms
      Writing library : LAME3.98
Added2016-07-16 16:36:07
Size147.79 MB (154,972,768 bytes)
Views259
Num files1 files
Pictures