♺ Street Boys - Sperm Kisses (2007)

CategoryBareback
Download
You need to Login or Signup first.
DescriptionOriginal upload: 2011-05-15 by unknown |

100% condom-free, 8 hot guys for example the sperm-hooked Martin Brawer who get the loads inside in the back and in the front, the other guys do it similarly of cause, 6 XXX-Hardcore Scenes, 11 Cumshots in mouth and four loads into the hole. Take a look and see the sperm comes out from mouth and ass. If you saw the movies "Sperm Kisses" or "Sperm Suckers" you know what "Bruckner-Quality" means. - A must for all sperm-fans.

Production date: 15/11/2006 - 4/5/2007

Released date: 2007

Length: 169 min.

Country: Germany

Language: German

Genre: Bareback, Europeans, Twinks, Uncut Cocks, Average Lookers, Blonds, Cum Eating, Toys, Facial Cumshots, Kissing, Oral Sex, Rimming, Snowballing, Solos

Cast: Daniel Copperfield, Thomas Jefferson, Karol Sladan, Peer Paulus, Lukas Jarda, Petr Hasek, Tommy Blond, George Michaelo, Felix Wallace, Martin Love, Martin Bold

Director: Marek Bruckner

Studio: Street Boys Studios


TECHNICAL DATA

General

Complete name                    : Sperm Kisses (2007).avi
Format                          : AVI
Format/Info                      : Audio Video Interleave
File size                        : 1.58 GiB
Duration                        : 2h 49mn
Overall bit rate                : 1 337 Kbps

Video

Format                          : MPEG-4 Visual
Format settings, BVOP            : No
Format settings, QPel            : No
Format settings, GMC            : No warppoints
Format settings, Matrix          : Default (H.263)
Codec ID                        : DX50
Codec ID/Hint                    : DivX 5
Duration                        : 2h 49mn
Bit rate                        : 1 196 Kbps
Width                            : 720 pixels
Height                          : 480 pixels
Display aspect ratio            : 3:2
Frame rate                      : 29.970 fps
Standard                        : NTSC
Color space                      : YUV
Chroma subsampling              : 4:2:0
Bit depth                        : 8 bits
Scan type                        : Progressive
Compression mode                : Lossy
Bits/(Pixel*Frame)              : 0.115
Stream size                      : 1.41 GiB (89%)
Title                            : Video
Writing library                  : DivX 5.2.1 Alpha (UTC 2004-09-08)

Audio

Format                          : MPEG Audio
Format version                  : Version 1
Format profile                  : Layer 3
Mode                            : Joint stereo
Mode extension                  : MS Stereo
Codec ID                        : 55
Codec ID/Hint                    : MP3
Duration                        : 2h 49mn
Bit rate mode                    : Constant
Bit rate                        : 32.0 Kbps
Channel(s)                      : 2 channels
Sampling rate                    : 44.1 KHz
Compression mode                : Lossy
Stream size                      : 154 MiB (10%)
Alignment                        : Aligned on interleaves
Interleave, duration            : 26 ms (0.78 video frame)
Interleave, preload duration    : 117 ms
Title                            : Audio
Writing library                  : LAME3.92

Added2014-10-27 02:28:04
Size1.58 GB (1,694,560,896 bytes)
Views2526
Num files1 files
Pictures