♺ JorgesGang - Jonnathan Wants Comida

CategoryLatino
Download
You need to Login or Signup first.
DescriptionOriginal upload: 2012-07-17 |
Latino twink gives an interview (sounds like Spanish; Bolivia is mentioned), then jerks off for a salad and, at last, has a shower.

---
MediaInfo:
General
Complete name : RB_jonnathan_wants_comida.wmv
Format : Windows Media
File size : 516 MiB
Duration : 22mn 56s
Overall bit rate mode : Constant
Overall bit rate : 3 144 Kbps
Maximum Overall bit rate : 3 155 Kbps
Encoded date : UTC 2009-02-20 20:53:22.380
Writing application : 6.0.6000.16386 / Windows Movie Maker
Application : Windows Movie Maker 6.0.6000.16386
Video
ID : 2
Format : VC-1
Format profile : MP@ML
Codec ID : WMV3
Codec ID/Info : Windows Media Video 9
Codec ID/Hint : WMV3
Description of the codec : Windows Media Video 9 - Professional
Duration : 22mn 56s
Bit rate mode : Constant
Bit rate : 3 000 Kbps
Width : 720 pixels
Height : 480 pixels
Display aspect ratio : 1.688
Frame rate : 29.970 fps
Standard : NTSC
Bit depth : 8 bits
Scan type : Progressive
Compression mode : Lossy
Bits/(Pixel*Frame) : 0.290
Stream size : 492 MiB (95%)
Language : English (US)
Audio
ID : 1
Format : WMA
Format version : Version 2
Codec ID : 161
Codec ID/Info : Windows Media Audio
Description of the codec : Windows Media Audio 9.2 - 128 kbps, 48 kHz, stereo (A/V) 1-pass CBR
Duration : 22mn 56s
Bit rate mode : Constant
Bit rate : 128 Kbps
Channel(s) : 2 channels
Sampling rate : 48.0 KHz
Bit depth : 16 bits
Stream size : 21.0 MiB (4%)
Language : English (US)
Added2015-11-17 15:28:08
Size516.07 MB (541,138,581 bytes)
Views951
Num files1 files
Pictures