♺ Private Boy Movi - Kin and Kit

You need to Login or Signup first.
DescriptionOriginal upload: 2010-02-13 |
Two 18 yo Thai boys together in steamy hot sex, smooth tender bodies and hard cocks. Also Kit was smooth shaved for the occasion, showing all the beauty of his big dick. And Kin had one of his first sex experiences, but he sure got into it with some easy guiding. They both loved sucking and it did not take long before Kit offered his nice ass. Kin gladly took the offer! The rest you can imagine...
(from www.privateboymovie.com description notes)

Condoms used.

Duration: 27 minutes

I've been coming up to speed on creating HD videos to share here, with the help of members on this site (thanks, guys!)... so now I�m working with the "Gspot" program to analyze the "Qf" (Quality Factor) of source videos... and when encoding, setting the desired video Bit Rate (of 2-pass Xvid) accordingly, to achieve, if possible, a Qf of .2 or higher. This video has a Qf of .2

If you appreciate this video, and only if you can afford it, an award of Bonus Points (to help me balance my upload/download ratio) would be greatly appreciated! Thank you!

Detailed Analysis of:  [PrivateBoyMovie] Kin and Kit.avi
Gspot Qf (Quality Factor) of .2
Complete name :[PrivateBoyMovie] Kin and Kit.avi
Format : AVI
Format/Info : Audio Video Interleave
File size : 917 MiB
Duration : 27mn 3s
Overall bit rate : 4 735 Kbps
Director : created.with.SUPER(C).v2010.bld.37
Writing application : VirtualDubMod (build 2542/release)
Writing library : VirtualDubMod build 2542/release

Video  ID : 0
Format : MPEG-4 Visual
Format profile : Advanced Simple@L5
Format settings, BVOP : Yes
Format settings, QPel : No
Format settings, GMC : No warppoints
Format settings, Matrix : Default (MPEG)
Muxing mode : Packed bitstream
Codec ID : XVID
Codec ID/Hint : XviD
Duration : 27mn 3s
Bit rate : 4 603 Kbps
Width : 1 280 pixels
Height : 720 pixels
Display aspect ratio : 16:9
Frame rate : 25.000 fps
Resolution : 8 bits
Colorimetry : 4:2:0
Scan type : Progressive
Bits/(Pixel*Frame) : 0.200
Stream size : 891 MiB (97%)
Writing library : XviD 1.2.1 (UTC 2008-12-04)

Audio  ID : 1
Format : MPEG Audio
Format version : Version 1
Format profile : Layer 3
Format_Settings_Mode : Joint stereo / MS Stereo
Codec ID : 55
Codec ID/Hint : MP3
Duration : 27mn 3s
Bit rate mode : Variable
Bit rate : 121 Kbps
Channel(s) : 2 channels
Sampling rate : 48.0 KHz
Stream size : 23.4 MiB (3%)
Alignment : Split accross interleaves
Interleave, duration : 28 ms (0.70 video frame)
Interleave, preload duration : 530 ms
Added2014-08-05 23:03:11
Size916.58 MB (961,103,872 bytes)
Num files1 files